Подписывайся на наш канал в Telegram https://t.me/torrentok и получи доступ к торрентам без ограничений!

Восход Эдерлези / Нимани / A.I. Rising (2018) BDRemux [H.264 / 1080p] торрент скачать бесплатно

Восход Эдерлези / Нимани / A.I. Rising (2018) BDRemux [H.264 / 1080p]Производство: Сербия/Film Center Serbia, Mir Media Group
Жанр: Фантастика, драма, мелодрама
Режиссер: Лазар Бодрожа
Продюсер: Джонатан Инглиш, Александр Протич, Гари Хэмилтон

Актеры
Себастьян Кавацца, Стоя, Маруша Майер, Кирсти Бестерман

Описание
2048 год. Космонавт Милютин, работающий на корпорацию Эдерлези, отправляется в экспедицию к Альфа Центавра в компании андроида Нимани. Во время долгого путешествия он влюбляется в робота, и космонавту начинает казаться, будто женщина реальна.


Возраст: 18+ Зрителям, достигшим 18 лет
Рейтинг MPAA: R Лицам до 17 обязательно присутствие взрослых
Дата мировой премьеры: 25 февраля 2018
Цифровой релиз: 23 июля 2020, Capella Film
Релиз от: NNMClub
Продолжительность: 01: 26: 23
Качество видео: BDRemux 1080p
Перевод: 3xМногоголосый закадровый (iTunes, СВ Студия (ненормативная лексика ), HDrezka Studio)
Субтитры: Русские (forced), Английские (Full, SDH)
Видео: AVC/H.264, 1920x1080, 21.9 Mbps, 23.976 fps
Аудио 1 : AC-3, 6 ch, 384 Kbps | Русский (iTunes)
Аудио 2 : AC-3, 6 ch, 640 Kbps | Русский (СВ Студия)
Аудио 3 : AAC, 2.0 ch, 207 Kbps | Русский (HDrezka Studio)
Аудио 4 : DTS-HD MA, 6 ch, 3690 Kbps | Английский
General
Unique ID : 182109026050972794795983725321684656190 (0x8900EC323B56F36A8FE561263F5E203E)
Complete name : /Volumes/Promise Pegasus/A.I.Rising.BDRemux.1080p.pk.mkv
Format : Matroska
Format version : Version 4
File size : 16.2 GiB
Duration : 1 h 26 min
Overall bit rate mode : Variable
Overall bit rate : 26.8 Mb/s
Movie name : A.I.Rising BDRemux 1080p pk
Encoded date : UTC 2020-08-25 12: 32: 20
Writing application : mkvmerge v49.0.0 (\'Sick Of Losing Soulmates\') 64-bit
Writing library : libebml v1.4.0 + libmatroska v1.6.1
Video
ID : 1
Format : AVC
Format/Info : Advanced Video Codec
Format profile : [email protected]L4.1
Format settings : CABAC/4 Ref Frames
Format settings, CABAC : Yes
Format settings, Reference frames : 4 frames
Codec ID : V_MPEG4/ISO/AVC
Duration : 1 h 26 min
Bit rate mode : Variable
Bit rate : 21.9 Mb/s
Maximum bit rate : 35.0 Mb/s
Width : 1 920 pixels
Height : 1 080 pixels
Display aspect ratio : 16: 9
Frame rate mode : Constant
Frame rate : 23.976 (24000/1001) FPS
Color space : YUV
Chroma subsampling : 4: 2: 0
Bit depth : 8 bits
Scan type : Progressive
Bits/(Pixel*Frame) : 0.440
Stream size : 13.2 GiB (82%)
Language : English
Default : Yes
Forced : No
Audio #1
ID : 2
Format : AC-3
Format/Info : Audio Coding 3
Commercial name : Dolby Digital
Codec ID : A_AC3
Duration : 1 h 26 min
Bit rate mode : Constant
Bit rate : 384 kb/s
Channel(s) : 6 channels
Channel layout : L R C LFE Ls Rs
Sampling rate : 48.0 kHz
Frame rate : 31.250 FPS (1536 SPF)
Compression mode : Lossy
Stream size : 237 MiB (1%)
Title : Russian MVO iTunes
Language : Russian
Service kind : Complete Main
Default : Yes
Forced : No
Audio #2
ID : 3
Format : AC-3
Format/Info : Audio Coding 3
Commercial name : Dolby Digital
Codec ID : A_AC3
Duration : 1 h 26 min
Bit rate mode : Constant
Bit rate : 640 kb/s
Channel(s) : 6 channels
Channel layout : L R C LFE Ls Rs
Sampling rate : 48.0 kHz
Frame rate : 31.250 FPS (1536 SPF)
Compression mode : Lossy
Stream size : 395 MiB (2%)
Title : MVO SV Studio
Language : Russian
Service kind : Complete Main
Default : No
Forced : No
Audio #3
ID : 4
Format : AAC LC
Format/Info : Advanced Audio Codec Low Complexity
Codec ID : A_AAC-2
Duration : 1 h 26 min
Bit rate : 207 kb/s
Channel(s) : 2 channels
Channel layout : L R
Sampling rate : 48.0 kHz
Frame rate : 46.875 FPS (1024 SPF)
Compression mode : Lossy
Stream size : 128 MiB (1%)
Title : MVO HDRezka Studio
Language : Russian
Default : No
Forced : No
Audio #4
ID : 5
Format : DTS XLL
Format/Info : Digital Theater Systems
Commercial name : DTS-HD Master Audio
Codec ID : A_DTS
Duration : 1 h 26 min
Bit rate mode : Variable
Bit rate : 3 690 kb/s
Channel(s) : 6 channels
Channel layout : C L R Ls Rs LFE
Sampling rate : 48.0 kHz
Frame rate : 93.750 FPS (512 SPF)
Bit depth : 24 bits
Compression mode : Lossless
Stream size : 2.23 GiB (14%)
Title : Original
Language : English
Default : No
Forced : No
Text #1
ID : 6
Format : UTF-8
Codec ID : S_TEXT/UTF8
Codec ID/Info : UTF-8 Plain Text
Duration : 1 h 11 min
Bit rate : 3 b/s
Count of elements : 40
Stream size : 1.69 KiB (0%)
Title : Forced
Language : Russian
Default : Yes
Forced : No
Text #2
ID : 7
Format : UTF-8
Codec ID : S_TEXT/UTF8
Codec ID/Info : UTF-8 Plain Text
Duration : 1 h 18 min
Bit rate : 43 b/s
Count of elements : 706
Stream size : 24.9 KiB (0%)
Title : Full
Language : English
Default : No
Forced : No
Text #3
ID : 8
Format : UTF-8
Codec ID : S_TEXT/UTF8
Codec ID/Info : UTF-8 Plain Text
Duration : 1 h 25 min
Bit rate : 43 b/s
Count of elements : 771
Stream size : 27.2 KiB (0%)
Title : SDH
Language : English
Default : No
Forced : No
Menu
00: 00: 00.000 : : Chapter 01
00: 00: 13.096 : : Chapter 02
00: 08: 11.365 : : Chapter 03
00: 16: 04.171 : : Chapter 04
00: 23: 44.214 : : Chapter 05
00: 31: 45.778 : : Chapter 06
00: 39: 50.513 : : Chapter 07
00: 48: 04.381 : : Chapter 08
00: 54: 10.747 : : Chapter 09
01: 00: 12.609 : : Chapter 10
01: 05: 46.442 : : Chapter 11
01: 14: 37.264 : : Chapter 12
01: 23: 00.141 : : Chapter 13

Скриншоты для ознакомления



Все одноименные релизы в Клубе
Время раздачи: 24/7 (круглосуточно) (до появления первых 3-5 скачавших)

Другие торренты по теме:

  • Восход Эдерлези / A.I. Rising (2018) WEBRip [MVO] [AD]
  • Восход Эдерлези / A.I. Rising (2018) WEB-DLRip [MVO]
  • Восход Эдерлези / A.I. Rising (2018) WEB-DL [H.264 / 1080p] [MVO]
  • Восход Эдерлези / A.I. Rising (2018) WEBRip [H.264 / 720p-LQ] [MVO]
  • Восход Эдерлези / A.I. Rising (2018) BDRip [H.264 / 1080p] [MVO]
  • Восход Эдерлези / A.I. Rising (2018) BDRemux [H.264 / 1080p]
  • Восход Эдерлези / A.I. Rising (2018) BDRip [H.265] [10-bit] [MVO]
  • Восход Эдерлези / A.I. Rising (2018) BDRip [H.265 / 720p] [10-bit] [MVO] [PR]

  • Посетители, находящиеся в группе Гости, не могут оставлять комментарии в данной новости.