Подписывайся на наш канал в Telegram https://t.me/torrentok и получи доступ к торрентам без ограничений!

Нимани (Восход Эдерлези) / A.I. Rising (2018) BDRip [H.264 / 1080p] [PR] торрент скачать бесплатно

Нимани (Восход Эдерлези) / A.I. Rising (2018) BDRip [H.264 / 1080p] [PR]Производство: Сербия/Film Center Serbia, Mir Media Group, Premiere Picture
Жанр: Фантастика, драма, мелодрама
Режиссер: Лазар Бодрожа

Актеры
Себастьян Кавацца, Стоя, Маруша Майер, Кирсти Бестерман

Описание

2148 год, международная корпорация отправляет космонавта и женщину-андроида на Альфа Центавру. Андроид очень красива и может выполнять любые команды, и космонавту кажется, что он влюбился. Но может ли искусственный интеллект ответить на его чувства?


Возраст: 18+ (зрителям, достигшим 18 лет. запрещено для детей)
Рейтинг MPAA: R (лицам до 17 лет обязательно присутствие взрослого)
Дата мировой премьеры: 25 февраля 2018
Дата российской премьеры: 23 июля 2020, Capella Film
Релиз от: trevor333
Продолжительность: 01: 26: 23
Качество видео: BDRip
Перевод: Многоголосый профессиональный (iTunes)
Субтитры: Английские (SDH)
Видео: AVC/H.264, 1920х720, ~17, 1 Mbps
Аудио: AC3, 6 ch, 384 Kbps, русский (MVO)
Аудио: AC3, 6 ch, 640 Kbps, английский (оригинал)
Общее
Уникальный идентификатор : 200649791680153270665116148579296256038 (0x96F3BE84C16294149208CF5652A2A026)
Полное имя : E: DownloadsA.I.Rising.2019.BDRip.1080p.mkv
Формат : Matroska
Версия формата : Version 4
Размер файла : 10, 9 Гбайт
Продолжительность : 1 ч. 26 м.
Общий поток : 18, 1 Мбит/сек
Название фильма : trevor333
Дата кодирования : UTC 2020-08-24 20: 51: 22
Программа кодирования : mkvmerge v16.0.0 (\'Protest\') 64-bit
Библиотека кодирования : libebml v1.3.5 + libmatroska v1.4.8
Видео
Идентификатор : 1
Формат : AVC
Формат/Информация : Advanced Video Codec
Профиль формата : [email protected]
Настройки формата : CABAC/6 Ref Frames
Параметр CABAC формата : Да
Параметр RefFrames формата : 6 кадров
Идентификатор кодека : V_MPEG4/ISO/AVC
Продолжительность : 1 ч. 26 м.
Битрейт : 17, 1 Мбит/сек
Ширина : 1 920 пикселей
Высота : 720 пикселей
Соотношение сторон : 2, 667
Режим частоты кадров : Постоянный
Частота кадров : 23, 976 (24000/1001) кадра/сек
Цветовое пространство : YUV
Субдискретизация насыщенности : 4: 2: 0
Битовая глубина : 8 бит
Тип развёртки : Прогрессивная
Бит/(Пиксели*Кадры) : 0.516
Размер потока : 10, 3 Гбайт (94%)
Библиотека кодирования : x264 core 157 r2970+47 cae74a0 t_mod_New [email protected] X86_64
Настройки программы : cabac=1/ref=6/deblock=1: -3: -3/analyse=0x3: 0x133/me=umh/subme=10/psy=1/fade_compensate=0.00/psy_rd=1.00: 0.00/mixed_ref=1/me_range=32/chroma_me=1/trellis=2/8x8dct=1/cqm=0/deadzone=21, 11/fast_pskip=0/chroma_qp_offset=-2/threads=24/lookahead_threads=4/sliced_threads=0/nr=0/decimate=0/interlaced=0/bluray_compat=0/constrained_intra=0/fgo=0/bframes=8/b_pyramid=2/b_adapt=2/b_bias=0/direct=3/weightb=1/open_gop=0/weightp=2/keyint=250/keyint_min=23/scenecut=40/intra_refresh=0/rc=crf/mbtree=0/crf=16.6000/qcomp=0.60/qpmin=0: 0: 0/qpmax=69: 69: 69/qpstep=4/ip_ratio=1.40/pb_ratio=1.30/aq=3: 0.85/aq-sensitivity=10.00/aq-factor=1.00: 1.00: 1.00/aq2=0/aq3=0/zones=11782, 11969, crf=13.6/59925, 60763, crf=13.6/60764, 60951, crf=13.6/60952, 61392, crf=13.6/62596, 63087, crf=13.6/101494, 101638, crf=13.6/101728, 102425, crf=13.6
Язык : English
Default : Да
Forced : Нет
Аудио #1
Идентификатор : 2
Формат : AC-3
Формат/Информация : Audio Coding 3
Коммерческое название : Dolby Digital
Идентификатор кодека : A_AC3
Продолжительность : 1 ч. 26 м.
Вид битрейта : Постоянный
Битрейт : 384 Кбит/сек
Каналы : 6 каналов
Channel layout : L R C LFE Ls Rs
Частота : 48, 0 КГц
Частота кадров : 31, 250 кадров/сек (1536 SPF)
Метод сжатия : С потерями
Размер потока : 237 Мбайт (2%)
Язык : Russian
Service kind : Complete Main
Default : Да
Forced : Нет
Аудио #2
Идентификатор : 3
Формат : AC-3
Формат/Информация : Audio Coding 3
Коммерческое название : Dolby Digital
Идентификатор кодека : A_AC3
Продолжительность : 1 ч. 26 м.
Вид битрейта : Постоянный
Битрейт : 640 Кбит/сек
Каналы : 6 каналов
Channel layout : L R C LFE Ls Rs
Частота : 48, 0 КГц
Частота кадров : 31, 250 кадров/сек (1536 SPF)
Метод сжатия : С потерями
Размер потока : 395 Мбайт (4%)
Язык : English
Service kind : Complete Main
Default : Нет
Forced : Нет
Текст #1
Идентификатор : 4
Формат : UTF-8
Идентификатор кодека : S_TEXT/UTF8
Идентификатор кодека/Информация : UTF-8 Plain Text
Продолжительность : 1 ч. 18 м.
Битрейт : 43 бит/сек
Count of elements : 706
Размер потока : 24, 9 Кбайт (0%)
Язык : English
Default : Нет
Forced : Нет
Текст #2
Идентификатор : 5
Формат : UTF-8
Идентификатор кодека : S_TEXT/UTF8
Идентификатор кодека/Информация : UTF-8 Plain Text
Продолжительность : 1 ч. 25 м.
Битрейт : 43 бит/сек
Count of elements : 771
Размер потока : 27, 2 Кбайт (0%)
Заголовок : SDH
Язык : English
Default : Нет
Forced : Нет
Меню
00: 00: 00.000 : : Chapter 01
00: 00: 13.096 : : Chapter 02
00: 08: 11.365 : : Chapter 03
00: 16: 04.171 : : Chapter 04
00: 23: 44.214 : : Chapter 05
00: 31: 45.778 : : Chapter 06
00: 39: 50.513 : : Chapter 07
00: 48: 04.381 : : Chapter 08
00: 54: 10.747 : : Chapter 09
01: 00: 12.609 : : Chapter 10
01: 05: 46.442 : : Chapter 11
01: 14: 37.264 : : Chapter 12
01: 23: 00.141 : : Chapter 13

Скриншоты для ознакомления



Все одноименные релизы в Клубе
Время раздачи: 24/7 (мультитрекерная раздача)

Другие торренты по теме:

  • Восход Эдерлези / Нимани / A.I. Rising (2018) BDRemux [H.264 / 1080p]
  • Восход Эдерлези / Нимани / A.I. Rising (2018) BDRip [H.264 / 1080p]

  • Посетители, находящиеся в группе Гости, не могут оставлять комментарии в данной новости.