Подписывайся на наш канал в Telegram https://t.me/torrentok и получи доступ к торрентам без ограничений!

Карты, деньги, два ствола / Lock, Stock and Two Smoking Barrels (1998) BDRip [H.264 / 720p] торрент скачать бесплатно

Карты, деньги, два ствола / Lock, Stock and Two Smoking Barrels (1998) BDRip [H.264 / 720p]Производство: Великобритания/Summit Entertainment, The Steve Tisch Company, SKA Films
Жанр: Комедия, криминал
Режиссер: Гай Ричи

Актеры
Джейсон Флеминг, Декстер Флетчер, Ник Моран, Джейсон Стэйтем, Стивен Макинтош, Николас Роу, Ник Марк, Чарльз Форбс, Винни Джонс, Ленни МакЛин

Описание

Четверо молодых парней накопили каждый по 25 тысяч фунтов, чтобы один из них мог сыграть в карты с опытным шулером и матерым преступником, известным по кличке Гарри-Топор. Парень в итоге проиграл 500 тысяч, на уплату долга ему дали неделю.
В противном случае и ему и его спонсорам каждый день будут отрубать по пальцу, а потом... Чтобы выйти из положения, ребята решили ограбить бандитов, решивших ограбить трех ботаников, выращивающих марихуану для местного наркобарона. Но на этом приключения четверки не заканчиваются...


Возраст: 18+ (зрителям, достигшим 18 лет. запрещено для детей)
Рейтинг MPAA: R (лицам до 17 лет обязательно присутствие взрослого)
Продолжительность: 01: 47: 23
Качество видео: BDRip
Перевод: Многоголосый профессиональный, Авторский одноголосый
Субтитры: Русские, Английские
Видео: AVC/H.264, 1280x694 (16: 9), ~9100 Kbps
Аудио 1: AC3, 6 ch, 448 Kbps - Русский (MVO, Киномания)
Аудио 2: AC3, 6 ch, 448 Kbps - Русский (AVO, Д.Пучков Goblin)(ненормативная лексика)
Аудио 3: AC3, 6 ch, 448 Kbps - Русский (AVO, Ю.Сербин)
Аудио 4: DTS, 6 ch, 1509 Kbps - Английский
Общее
Уникальный идентификатор : 221694127225729161307203590564133393109 (0xA6C8BC5E2AE37F5CB9C21AC5F756D2D5)
Полное имя : D: Games1998 Карты, деньги и два дымящихся ствола BDRip - AVC - 1280 x 694.mkv
Формат : Matroska
Версия формата : Version 2
Размер файла : 8, 97 Гбайт
Продолжительность : 1 ч. 47 м.
Общий поток : 11, 9 Мбит/сек
Название фильма : Карты, деньги и два дымящихся ствола/Lock, Stock and Two Smoking Barrels (1998) 720p BDRip
Дата кодирования : UTC 2009-11-20 19: 27: 05
Программа кодирования : mkvmerge v2.9.8 (\'C\'est le bon\') built on Aug 13 2009 12: 49: 06
Библиотека кодирования : libebml v0.7.7 + libmatroska v0.8.1
Attachments : CronosPro-Bold.ttf/CronosPro-Semibold.ttf/CronosPro-SemiboldIt.ttf
Видео
Идентификатор : 1
Формат : AVC
Формат/Информация : Advanced Video Codec
Профиль формата : [email protected]
Настройки формата : CABAC/7 Ref Frames
Параметр CABAC формата : Да
Параметр RefFrames формата : 7 кадров
Идентификатор кодека : V_MPEG4/ISO/AVC
Продолжительность : 1 ч. 47 м.
Битрейт : 9 100 Кбит/сек
Ширина : 1 280 пикселей
Высота : 694 пикселя
Соотношение сторон : 1, 85: 1
Режим частоты кадров : Постоянный
Частота кадров : 23, 976 кадра/сек
Цветовое пространство : YUV
Субдискретизация насыщенности : 4: 2: 0
Битовая глубина : 8 бит
Тип развёртки : Прогрессивная
Бит/(Пиксели*Кадры) : 0.427
Размер потока : 6, 64 Гбайт (74%)
Заголовок : 1998 Lock, Stock and Two Smoking Barrels BDRip - AVC - 1280 x 694
Библиотека кодирования : x264 core 78 r1318 fe83a90
Настройки программы : cabac=1/ref=8/deblock=1: -3: -3/analyse=0x3: 0x133/me=esa/subme=10/psy=1/psy_rd=1.0: 0.5/mixed_ref=1/me_range=24/chroma_me=1/trellis=2/8x8dct=1/cqm=0/deadzone=21, 11/chroma_qp_offset=-4/threads=6/nr=0/decimate=0/mbaff=0/constrained_intra=0/bframes=5/b_pyramid=1/b_adapt=2/b_bias=0/direct=3/wpredb=1/keyint=250/keyint_min=25/scenecut=40/rc=2pass/mbtree=0/bitrate=9100/ratetol=1.0/qcomp=0.60/qpmin=10/qpmax=30/qpstep=4/cplxblur=20.0/qblur=0.5/ip_ratio=1.40/pb_ratio=1.30/aq=1: 0.70
Язык : English
Default : Да
Forced : Нет
Аудио #1
Идентификатор : 2
Формат : AC-3
Формат/Информация : Audio Coding 3
Коммерческое название : Dolby Digital
Идентификатор кодека : A_AC3
Продолжительность : 1 ч. 47 м.
Вид битрейта : Постоянный
Битрейт : 448 Кбит/сек
Каналы : 6 каналов
Channel layout : L R C LFE Ls Rs
Частота : 48, 0 КГц
Частота кадров : 31, 250 кадров/сек (1536 SPF)
Метод сжатия : С потерями
Размер потока : 345 Мбайт (4%)
Заголовок : Многоголосый закадровый (КиноМания)
Язык : Russian
Service kind : Complete Main
Default : Да
Forced : Нет
Аудио #2
Идентификатор : 3
Формат : AC-3
Формат/Информация : Audio Coding 3
Коммерческое название : Dolby Digital
Идентификатор кодека : A_AC3
Продолжительность : 1 ч. 47 м.
Вид битрейта : Постоянный
Битрейт : 448 Кбит/сек
Каналы : 6 каналов
Channel layout : L R C LFE Ls Rs
Частота : 48, 0 КГц
Частота кадров : 31, 250 кадров/сек (1536 SPF)
Метод сжатия : С потерями
Задержка видео : 2 с. 700 мс.
Размер потока : 345 Мбайт (4%)
Заголовок : Одноголосый закадровый (Дмитрий Гоблин Пучков)
Язык : Russian
Service kind : Complete Main
Default : Нет
Forced : Нет
Аудио #3
Идентификатор : 4
Формат : AC-3
Формат/Информация : Audio Coding 3
Коммерческое название : Dolby Digital
Идентификатор кодека : A_AC3
Продолжительность : 1 ч. 47 м.
Вид битрейта : Постоянный
Битрейт : 448 Кбит/сек
Каналы : 6 каналов
Channel layout : L R C LFE Ls Rs
Частота : 48, 0 КГц
Частота кадров : 31, 250 кадров/сек (1536 SPF)
Метод сжатия : С потерями
Задержка видео : 2 с. 700 мс.
Размер потока : 345 Мбайт (4%)
Заголовок : Одноголосый закадровый (Ю. Сербин)
Язык : Russian
Service kind : Complete Main
Default : Нет
Forced : Нет
Аудио #4
Идентификатор : 5
Формат : DTS
Формат/Информация : Digital Theater Systems
Идентификатор кодека : A_DTS
Продолжительность : 1 ч. 47 м.
Вид битрейта : Постоянный
Битрейт : 1 509 Кбит/сек
Каналы : 6 каналов
Channel layout : C L R Ls Rs LFE
Частота : 48, 0 КГц
Частота кадров : 93, 750 кадра/сек (512 SPF)
Битовая глубина : 24 бит
Метод сжатия : С потерями
Размер потока : 1, 13 Гбайт (13%)
Заголовок : Оригинальный (English)
Язык : English
Default : Нет
Forced : Нет
Текст #1
Идентификатор : 6
Формат : UTF-8
Идентификатор кодека : S_TEXT/UTF8
Идентификатор кодека/Информация : UTF-8 Plain Text
Заголовок : Russian
Язык : Russian
Default : Нет
Forced : Нет
Текст #2
Идентификатор : 7
Формат : ASS
Идентификатор кодека : S_TEXT/ASS
Идентификатор кодека/Информация : Advanced Sub Station Alpha
Метод сжатия : Без потерь
Заголовок : English
Язык : English
Default : Нет
Forced : Нет

Другие торренты по теме:

  • Карты, деньги, два ствола / Lock, Stock and Two Smoking Barrels (1998) BDRip [H.264]
  • Карты, деньги, два ствола / Lock, Stock and Two Smoking Barrels (1998) BDRemux [1080p]
  • Советские мафии. Карты, деньги, кровь (2015.09.16) SATRip скачать через торрент бесплатно
  • Карты, деньги и слова / Три ямы, два гвоздя и ствол / Three Holes, Two Brads, and a Smoking Gun (2015) WEB-DLRip
  • Карты, деньги и два ствола / Lock, Stock and Two Smoking Barrels (1998) BDRip [H.264 / 1080p]
  • Карты, деньги и два ствола / Lock, Stock and Two Smoking Barrels (1998) HDRip [H.264] [MP4|1024x556]
  • Карты, деньги, два ствола / Lock, Stock and Two Smoking Barrels (1998) [H.265 / 1080p] [10-bit]
  • Карты, деньги, два ствола / Lock, Stock and Two Smoking Barrels (1998) BDRip [H.264 / 720p]

  • Посетители, находящиеся в группе Гости, не могут оставлять комментарии в данной новости.