Подписывайся на наш канал в Telegram https://t.me/torrentok и получи доступ к торрентам без ограничений!

Терминатор 2: Судный день / Terminator 2: Judgment Day (1991) BDRip [H.264 / 1080p] [Directors Cut] торрент скачать бесплатно

Терминатор 2: Судный день / Terminator 2: Judgment Day (1991) BDRip [H.264 / 1080p] [Directors Cut]Производство: США/Carolco Pictures, Pacific Western, Lightstorm Entertainment
Жанр: фантастика, боевик, триллер
Режиссер: Джеймс Кэмерон

Актеры
Арнольд Шварценеггер, Линда Хэмилтон, Эдвард Ферлонг, Роберт Патрик, Эрл Боэн, Джо Мортон, С. Ипейта Меркерсон, Кастуло Герра, Дэнни Кукси, Дженетт Голдстин

Описание

Прошло более десяти лет с тех пор, как киборг из 2029 года пытался уничтожить Сару Коннор — женщину, чей будущий сын выиграет войну человечества против машин.
Теперь у Сары родился сын Джон и время, когда он поведёт за собой выживших людей на борьбу с машинами, неумолимо приближается. Именно в этот момент из постапокалиптического будущего прибывает новый терминатор — практически неуязвимая модель T-1000, способная принимать любое обличье. Цель нового терминатора уже не Сара, а уничтожение молодого Джона Коннора.
Однако шансы Джона на спасение существенно повышаются, когда на помощь приходит перепрограммированный сопротивлением терминатор предыдущего поколения. Оба киборга вступают в смертельный бой, от исхода которого зависит судьба человечества.


Возраст: 18+ (зрителям, достигшим 18 лет. запрещено для детей)
Рейтинг MPAA: R (лицам до 17 лет обязательно присутствие взрослого)
Продолжительность: 02: 33: 27
Качество видео: BDRip
Перевод: Многоголосый профессиональный, авторский
Субтитры: русские, английские
Видео: AVC/H.264, 1916x816, ~17.3 mbps
Аудио 1: DTS, 6 ch, 1510 kbps, Русский (MVO Позитив-Мультимедиа)
Аудио 2: DTS, 6 ch, 1510 kbps, Русский (MVO Киномания)
Аудио 3: AC3, 6 ch, 448 kbps, Русский (MVO TV-6)
Аудио 4: AC3, 6 ch, 448 kbps, Русский (MVO OРТ)
Аудио 5: AC3, 6 ch, 448 kbps, Русский (MVO CP Digital)
Аудио 6: DTS, 6 ch, 1510 kbps, Русский (AVO Д.Пучков)
Аудио 7: DTS, 6 ch, 1510 kbps, Русский (AVO А.Гаврилов)
Аудио 8: DTS, 6 ch, 1510 kbps, Русский (AVO Ю.Живов)
Аудио 9: DTS, 6 ch, 1510 kbps, Русский (AVO В.Горчаков)
Аудио 10: DTS, 6 ch, 1510 kbps, Английский
Общее
Уникальный идентификатор : 224914853559771045465425948236530624286 (0xA935066FA105EE33AFC2D7AAFCE0A71E)
Полное имя : F: Terminator.2.Judgment.Day.1991.Directors.Cut.1080p.BluRay.mkv
Формат : Matroska
Версия формата : Version 4
Размер файла : 31, 3 Гбайт
Продолжительность : 2 ч. 33 м.
Общий поток : 29, 2 Мбит/сек
Название фильма : Terminator 2: Judgment Day (1991).BDRip.1080p.
Дата кодирования : UTC 2020-08-25 08: 13: 31
Программа кодирования : mkvmerge v8.2.0 (\'World of Adventure\') 64bit
Библиотека кодирования : libebml v1.3.1 + libmatroska v1.4.2
Обложка : Yes
Attachments : cover.jpg
Видео
Идентификатор : 1
Формат : AVC
Формат/Информация : Advanced Video Codec
Профиль формата : [email protected]
Настройки формата : CABAC/5 Ref Frames
Параметр CABAC формата : Да
Параметр RefFrames формата : 5 кадров
Идентификатор кодека : V_MPEG4/ISO/AVC
Продолжительность : 2 ч. 33 м.
Битрейт : 17, 3 Мбит/сек
Ширина : 1 916 пикселей
Высота : 816 пикселей
Соотношение сторон : 2, 35: 1
Режим частоты кадров : Постоянный
Частота кадров : 23, 976 (24000/1001) кадра/сек
Цветовое пространство : YUV
Субдискретизация насыщенности : 4: 2: 0
Битовая глубина : 8 бит
Тип развёртки : Прогрессивная
Бит/(Пиксели*Кадры) : 0.460
Размер потока : 18, 5 Гбайт (59%)
Заголовок : Terminator 2: Judgment Day
Библиотека кодирования : x264 core 148 r2665+53 6629127 t_mod_Custom [email protected] X86_64
Настройки программы : cabac=1/ref=5/deblock=1: -3: -3/analyse=0x3: 0x133/me=tesa/subme=11/psy=1/fade_compensate=0.00/psy_rd=0.93: 0.00/mixed_ref=1/me_range=32/chroma_me=1/trellis=2/8x8dct=1/cqm=0/deadzone=21, 11/fast_pskip=0/chroma_qp_offset=-2/threads=12/lookahead_threads=3/sliced_threads=0/nr=0/decimate=1/interlaced=0/bluray_compat=0/constrained_intra=0/fgo=0/bframes=10/b_pyramid=2/b_adapt=2/b_bias=0/direct=3/weightb=1/open_gop=0/weightp=2/keyint=240/keyint_min=23/scenecut=40/intra_refresh=0/rc=2pass/mbtree=0/bitrate=17250/ratetol=1.0/qcomp=0.60/qpmin=0: 0: 0/qpmax=69: 69: 69/qpstep=4/cplxblur=20.0/qblur=0.5/ip_ratio=1.20/pb_ratio=1.10/aq=1: 0.85/aq-sensitivity=10.00/aq-factor=1.00: 1.00: 1.00/aq2=0/aq3=0/zones=213690, 220740, b=0.15
Язык : English
Default : Да
Forced : Нет
Аудио #1
Идентификатор : 2
Формат : DTS
Формат/Информация : Digital Theater Systems
Идентификатор кодека : A_DTS
Продолжительность : 2 ч. 33 м.
Вид битрейта : Постоянный
Битрейт : 1 510 Кбит/сек
Каналы : 6 каналов
Channel layout : C L R Ls Rs LFE
Частота : 48, 0 КГц
Частота кадров : 93, 750 кадра/сек (512 SPF)
Битовая глубина : 24 бит
Метод сжатия : С потерями
Размер потока : 1, 62 Гбайт (5%)
Заголовок : MVO Позитив
Язык : Russian
Default : Нет
Forced : Нет
Аудио #2
Идентификатор : 3
Формат : DTS
Формат/Информация : Digital Theater Systems
Идентификатор кодека : A_DTS
Продолжительность : 2 ч. 33 м.
Вид битрейта : Постоянный
Битрейт : 1 510 Кбит/сек
Каналы : 6 каналов
Channel layout : C L R Ls Rs LFE
Частота : 48, 0 КГц
Частота кадров : 93, 750 кадра/сек (512 SPF)
Битовая глубина : 24 бит
Метод сжатия : С потерями
Размер потока : 1, 62 Гбайт (5%)
Заголовок : MVO Киномания
Язык : Russian
Default : Нет
Forced : Нет
Аудио #3
Идентификатор : 4
Формат : AC-3
Формат/Информация : Audio Coding 3
Коммерческое название : Dolby Digital
Идентификатор кодека : A_AC3
Продолжительность : 2 ч. 33 м.
Вид битрейта : Постоянный
Битрейт : 448 Кбит/сек
Каналы : 6 каналов
Channel layout : L R C LFE Ls Rs
Частота : 48, 0 КГц
Частота кадров : 31, 250 кадров/сек (1536 SPF)
Метод сжатия : С потерями
Размер потока : 492 Мбайт (2%)
Заголовок : MVO, TV-6
Язык : Russian
Service kind : Complete Main
Default : Нет
Forced : Нет
Аудио #4
Идентификатор : 5
Формат : AC-3
Формат/Информация : Audio Coding 3
Коммерческое название : Dolby Digital
Идентификатор кодека : A_AC3
Продолжительность : 2 ч. 33 м.
Вид битрейта : Постоянный
Битрейт : 448 Кбит/сек
Каналы : 6 каналов
Channel layout : L R C LFE Ls Rs
Частота : 48, 0 КГц
Частота кадров : 31, 250 кадров/сек (1536 SPF)
Метод сжатия : С потерями
Размер потока : 492 Мбайт (2%)
Заголовок : MVO OРТ
Язык : Russian
Service kind : Complete Main
Default : Нет
Forced : Нет
Аудио #5
Идентификатор : 6
Формат : AC-3
Формат/Информация : Audio Coding 3
Коммерческое название : Dolby Digital
Идентификатор кодека : A_AC3
Продолжительность : 2 ч. 33 м.
Вид битрейта : Постоянный
Битрейт : 448 Кбит/сек
Каналы : 6 каналов
Channel layout : L R C LFE Ls Rs
Частота : 48, 0 КГц
Частота кадров : 31, 250 кадров/сек (1536 SPF)
Метод сжатия : С потерями
Размер потока : 491 Мбайт (2%)
Заголовок : MVO CP Digital
Язык : Russian
Service kind : Complete Main
Default : Нет
Forced : Нет
Аудио #6
Идентификатор : 7
Формат : DTS
Формат/Информация : Digital Theater Systems
Идентификатор кодека : A_DTS
Продолжительность : 2 ч. 33 м.
Вид битрейта : Постоянный
Битрейт : 1 509 Кбит/сек
Каналы : 6 каналов
Channel layout : C L R Ls Rs LFE
Частота : 48, 0 КГц
Частота кадров : 93, 750 кадра/сек (512 SPF)
Битовая глубина : 24 бит
Метод сжатия : С потерями
Размер потока : 1, 62 Гбайт (5%)
Заголовок : AVO Д.Пучков
Язык : Russian
Default : Нет
Forced : Нет
Аудио #7
Идентификатор : 8
Формат : DTS
Формат/Информация : Digital Theater Systems
Идентификатор кодека : A_DTS
Продолжительность : 2 ч. 33 м.
Вид битрейта : Постоянный
Битрейт : 1 509 Кбит/сек
Каналы : 6 каналов
Channel layout : C L R Ls Rs LFE
Частота : 48, 0 КГц
Частота кадров : 93, 750 кадра/сек (512 SPF)
Битовая глубина : 24 бит
Метод сжатия : С потерями
Размер потока : 1, 62 Гбайт (5%)
Заголовок : AVO А.Гаврилов
Язык : Russian
Default : Нет
Forced : Нет
Аудио #8
Идентификатор : 9
Формат : DTS
Формат/Информация : Digital Theater Systems
Идентификатор кодека : A_DTS
Продолжительность : 2 ч. 33 м.
Вид битрейта : Постоянный
Битрейт : 1 509 Кбит/сек
Каналы : 6 каналов
Channel layout : C L R Ls Rs LFE
Частота : 48, 0 КГц
Частота кадров : 93, 750 кадра/сек (512 SPF)
Битовая глубина : 24 бит
Метод сжатия : С потерями
Размер потока : 1, 62 Гбайт (5%)
Заголовок : AVO Ю.Живов
Язык : Russian
Default : Нет
Forced : Нет
Аудио #9
Идентификатор : 10
Формат : DTS
Формат/Информация : Digital Theater Systems
Идентификатор кодека : A_DTS
Продолжительность : 2 ч. 33 м.
Вид битрейта : Постоянный
Битрейт : 1 509 Кбит/сек
Каналы : 6 каналов
Channel layout : C L R Ls Rs LFE
Частота : 48, 0 КГц
Частота кадров : 93, 750 кадра/сек (512 SPF)
Битовая глубина : 24 бит
Метод сжатия : С потерями
Размер потока : 1, 62 Гбайт (5%)
Заголовок : AVO В.Горчаков
Язык : Russian
Default : Нет
Forced : Нет
Аудио #10
Идентификатор : 11
Формат : DTS
Формат/Информация : Digital Theater Systems
Идентификатор кодека : A_DTS
Продолжительность : 2 ч. 33 м.
Вид битрейта : Постоянный
Битрейт : 1 509 Кбит/сек
Каналы : 6 каналов
Channel layout : C L R Ls Rs LFE
Частота : 48, 0 КГц
Частота кадров : 93, 750 кадра/сек (512 SPF)
Битовая глубина : 24 бит
Метод сжатия : С потерями
Размер потока : 1, 62 Гбайт (5%)
Язык : English
Default : Да
Forced : Нет
Текст #1
Идентификатор : 12
Формат : UTF-8
Идентификатор кодека : S_TEXT/UTF8
Идентификатор кодека/Информация : UTF-8 Plain Text
Продолжительность : 2 ч. 27 м.
Битрейт : 51 бит/сек
Count of elements : 1142
Размер потока : 56, 0 Кбайт (0%)
Язык : Russian
Default : Да
Forced : Нет
Текст #2
Идентификатор : 13
Формат : UTF-8
Идентификатор кодека : S_TEXT/UTF8
Идентификатор кодека/Информация : UTF-8 Plain Text
Продолжительность : 2 ч. 27 м.
Битрейт : 51 бит/сек
Count of elements : 1142
Размер потока : 56, 1 Кбайт (0%)
Язык : Russian
Default : Нет
Forced : Нет
Текст #3
Идентификатор : 14
Формат : UTF-8
Идентификатор кодека : S_TEXT/UTF8
Идентификатор кодека/Информация : UTF-8 Plain Text
Продолжительность : 2 ч. 31 м.
Битрейт : 28 бит/сек
Count of elements : 1063
Размер потока : 32, 1 Кбайт (0%)
Язык : English
Default : Нет
Forced : Нет
Меню
00: 00: 00.000 : : Prologue
00: 00: 51.093 : : Future War
00: 03: 37.301 : : Maint Titles
00: 05: 35.836 : : A Terminator Arrives
00: 06: 47.408 : : Biker Bar
00: 09: 10.217 : : Bad to the Bone
00: 10: 32.549 : : T-1000 Arrives
00: 12: 30.500 : : Meet John Conner
00: 13: 37.609 : : Sarah Conner
00: 15: 30.722 : : Ain\'t No Trouble
00: 16: 30.907 : : T-1000 Visits Voights
00: 17: 40.310 : : Easy Money
00: 19: 11.150 : : Not Much Time Time Left in the World
00: 22: 28.222 : : Sanity Review
00: 25: 55.471 : : Cyberdyne Systems
00: 27: 28.981 : : Model Citizen
00: 28: 52.189 : : Target Acquired
00: 29: 45.659 : : The Galleria
00: 31: 22.047 : : Zeroed in the Corridor
00: 33: 58.579 : : In the Streets
00: 35: 09.233 : : Canal Chase
00: 38: 49.327 : : Time Out
00: 41: 32.407 : : Never This Nice
00: 44: 15.195 : : T-1000\'s Search
00: 44: 45.058 : : Photos
00: 46: 00.425 : : Mission Parameters
00: 49: 46.984 : : Pescadero State Hospital
00: 52: 58.467 : : Lewis the Guard
00: 54: 43.030 : : Sarah Breaks Out
00: 56: 20.586 : : 215 Bones
00: 57: 04.046 : : I Swear
00: 58: 13.032 : : A Syringe-Point
01: 00: 22.953 : : Come with Me If You Want to Live
01: 01: 50.415 : : Escape From Pescadero
01: 06: 23.647 : : Security Car
01: 07: 58.909 : : Nice Bike
01: 08: 39.824 : : Night Repairs
01: 10: 02.699 : : Resetting the Switch
01: 13: 28.947 : : Heading South
01: 14: 07.402 : : No Problemo
01: 14: 57.243 : : Smile?
01: 16: 25.248 : : Detailed Files
01: 18: 47.557 : : Meet the Pilot
01: 21: 08.072 : : Salceda\'s Camp
01: 23: 37.638 : : Weapons Cache
01: 26: 24.179 : : Fathers and Sons
01: 30: 44.439 : : Nuclear Nightmare
01: 33: 01.409 : : Sarah\'s Decision
01: 33: 31.690 : : No Fate
01: 35: 14.793 : : Sarah\'s Solution
01: 41: 34.130 : : Changing the Way It Goes
01: 44: 23.174 : : Target: Cyberdyne
01: 46: 24.670 : : All the Way
01: 48: 24.790 : : T-1000 at Dyson\'s
01: 49: 04.455 : : A Lot of Years
01: 49: 55.047 : : Company
01: 52: 03.175 : : Terminator Serves Notice
01: 53: 52.367 : : In the Vault
01: 54: 24.900 : : S.W.a.T. Offensive
01: 56: 46.041 : : Death of Dyson and Cyberdyne
01: 58: 17.049 : : I\'ll Be Back
01: 59: 57.482 : : Borrowing the S.W.a.T. Van
02: 01: 10.096 : : T-1000 Acquires a Helicopter
02: 02: 08.655 : : Freeway Chase
02: 04: 47.647 : : Tanker Chase
02: 08: 52.433 : : Fire and Ice
02: 12: 21.726 : : Glitching
02: 13: 01.057 : : Sticking Together
02: 13: 34.215 : : Hand to Hand
02: 14: 43.951 : : Deepter Into the Steel Mill
02: 15: 19.070 : : Sarahs\' Stand
02: 17: 15.519 : : Terminator Skewered
02: 19: 15.347 : : Sarah and John
02: 19: 47.963 : : Alternate Power
02: 20: 23.791 : : Two Sarah\'s
02: 21: 54.465 : : Terminated
02: 24: 07.681 : : One More Chip
02: 27: 58.703 : : The Unknown Future
02: 28: 41.371 : : End Titles
02: 32: 42.695 : : Restoration Credits
02: 33: 25.029 : : 02: 33: 26.029

Скриншоты для ознакомления



Все одноименные релизы в Клубе
Время раздачи: c 5 до 19 мск (до появления первых 3-5 скачавших)

Другие торренты по теме:

  • Терминатор 2: Судный день / Terminator 2: Judgment Day (1991) BDRip [1080p] [Extended Special Edition] [hand made 60fps] скачать через торрент бесплатно
  • Терминатор 2: Судный день / Terminator 2: Judgment Day (Directors Cut) (1991) LDRip [H.264] [AVO] скачать через торрент бесплатно
  • Терминатор 2: Судный день / Terminator 2: Judgment Day (1991) HDRip [Directors Cut] скачать через торрент бесплатно
  • Терминатор 2: Судный день / Terminator 2: Judgment Day (1991) HDRip [Skynet Edition] [AVO] скачать через торрент бесплатно
  • Терминатор 2: Судный день / Terminator 2: Judgment Day (1991) BDRip [H.264 / 1080p-LQ] [Directors Cut] скачать через торрент бесплатно
  • Терминатор 2: Судный день / Terminator 2: Judgment Day (1991) BDRip [H.264 / 1080p] [Skynet Edition] скачать через торрент бесплатно
  • Терминатор 2: Судный день / Terminator 2: Judgment Day (1991) BDRip [H.264 / 1080p-LQ] [Directors Cut / Special Edition] скачать через торрент бесплатно
  • Терминатор 2: Судный день / Terminator 2: Judgment Day (1991) BDRip [H.265 / 1080p] [Special Edition] [Main10] [hand made remaster]

  • Посетители, находящиеся в группе Гости, не могут оставлять комментарии в данной новости.