Подписывайся на наш канал в Telegram https://t.me/torrentok и получи доступ к торрентам без ограничений!

Крыша мира / Top of the World (1997) WEB-DLRip [H.264 / 720p] торрент скачать бесплатно

Крыша мира / Top of the World (1997) WEB-DLRip [H.264 / 720p]Производство: США/Millennium Films, Nu-Image Films
Жанр: Боевик, Триллер
Режиссер: Сидни Дж. Фьюри

Актеры
Питер Уэллер, Деннис Хоппер, Тиа Каррере, Дэвид Алан Грир, Джо Пантольяно, Кэри-Хироюки Тагава, Питер Койот, Джули МакКалло, Мартин Коув, Кевин Бернхардт

Описание

Освобожденный из тюрьмы бывший полицейский Рэй Мерсер приезжает в Лас-Вегас, чтобы развестись со своей женой Ребеккой. Не удержавшись, он заходит в казино, где выигрывает 450 тысяч долларов.
Пока он решает, как не засветившись получить выигрыш, банда налетчиков совершает ограбление этого самого казино. И все сходится к тому, что именно Рэй должен за все ответить.


Возраст: 16+ (зрителям, достигшим 16 лет)
Рейтинг MPAA: R (лицам до 17 лет обязательно присутствие взрослого)
Релиз от: k.e.n MegaPeer
Продолжительность: 01: 38: 48
Качество видео: WEB-DLRip 720p
Перевод: Профессиональный двухголосый, авторский
Субтитры: английские
Видео: AVC/H.264, 1280x720, 23.976 fps, 5760 kbps
Аудио #1: AC3, 48 kHz, 2 ch, 192 kbps - Русский, DVO, НТВ
Аудио #2: AC3, 48 kHz, 2 ch, 192 kbps - Русский, AVO, А.Гаврилов
Аудио #3: AC3, 48 kHz, 2 ch, 192 kbps - Английский, OriginalGeneral
Unique ID : 178499243558456609101466622365466650158 (0x8649B42DAD3837A28233AE2A8EF8662E)
Complete name : C: Крыша мира.1997 (П.Веллер, Д.Хоппер).k.e.n MegaPeer.mkv
Format : Matroska
Format version : Version 2
File size : 4.36 GiB
Duration : 1 h 38 min
Overall bit rate : 6 324 kb/s
Encoded date : UTC 2020-08-25 06: 46: 38
Writing application : mkvmerge v5.3.0 (\'I could have danced\') built on Feb 9 2012 10: 38: 07
Writing library : libebml v1.2.3 + libmatroska v1.3.0
Attachments : poster.jpg
Video
ID : 1
Format : AVC
Format/Info : Advanced Video Codec
Format profile : [email protected]
Format settings : CABAC/9 Ref Frames
Format settings, CABAC : Yes
Format settings, ReFrames : 9 frames
Codec ID : V_MPEG4/ISO/AVC
Duration : 1 h 38 min
Bit rate : 5 760 kb/s
Width : 1 280 pixels
Height : 720 pixels
Display aspect ratio : 16: 9
Frame rate mode : Constant
Frame rate : 23.976 (24000/1001) FPS
Color space : YUV
Chroma subsampling : 4: 2: 0
Bit depth : 8 bits
Scan type : Progressive
Bits/(Pixel*Frame) : 0.261
Stream size : 3.88 GiB (89%)
Writing library : x264 core 160 r3000 33f9e14
Encoding settings : cabac=1/ref=9/deblock=1: -3: -3/analyse=0x3: 0x133/me=umh/subme=10/psy=1/psy_rd=1.00: 0.00/mixed_ref=1/me_range=32/chroma_me=1/trellis=2/8x8dct=1/cqm=0/deadzone=21, 11/fast_pskip=0/chroma_qp_offset=-2/threads=12/lookahead_threads=4/sliced_threads=0/nr=0/decimate=0/interlaced=0/bluray_compat=0/constrained_intra=0/bframes=10/b_pyramid=2/b_adapt=2/b_bias=0/direct=3/weightb=1/open_gop=0/weightp=2/keyint=240/keyint_min=23/scenecut=40/intra_refresh=0/rc=2pass/mbtree=0/bitrate=5760/ratetol=1.0/qcomp=0.65/qpmin=0/qpmax=69/qpstep=4/cplxblur=20.0/qblur=0.5/ip_ratio=1.25/pb_ratio=1.30/aq=3: 0.80
Language : English
Default : Yes
Forced : No
Color range : Limited
Color primaries : BT.709
Transfer characteristics : BT.709
Matrix coefficients : BT.709
Audio #1
ID : 2
Format : AC-3
Format/Info : Audio Coding 3
Commercial name : Dolby Digital
Codec ID : A_AC3
Duration : 1 h 38 min
Bit rate mode : Constant
Bit rate : 192 kb/s
Channel(s) : 2 channels
Channel layout : L R
Sampling rate : 48.0 kHz
Frame rate : 31.250 FPS (1536 SPF)
Bit depth : 16 bits
Compression mode : Lossy
Stream size : 136 MiB (3%)
Title : DVO | НТВ
Language : Russian
Service kind : Complete Main
Default : Yes
Forced : No
Audio #2
ID : 3
Format : AC-3
Format/Info : Audio Coding 3
Commercial name : Dolby Digital
Codec ID : A_AC3
Duration : 1 h 38 min
Bit rate mode : Constant
Bit rate : 192 kb/s
Channel(s) : 2 channels
Channel layout : L R
Sampling rate : 48.0 kHz
Frame rate : 31.250 FPS (1536 SPF)
Bit depth : 16 bits
Compression mode : Lossy
Stream size : 136 MiB (3%)
Title : AVO | А.Гаврилов
Language : Russian
Service kind : Complete Main
Default : No
Forced : No
Audio #3
ID : 4
Format : AC-3
Format/Info : Audio Coding 3
Commercial name : Dolby Digital
Codec ID : A_AC3
Duration : 1 h 38 min
Bit rate mode : Constant
Bit rate : 192 kb/s
Channel(s) : 2 channels
Channel layout : L R
Sampling rate : 48.0 kHz
Frame rate : 31.250 FPS (1536 SPF)
Bit depth : 16 bits
Compression mode : Lossy
Stream size : 136 MiB (3%)
Title : Original
Language : English
Service kind : Complete Main
Default : No
Forced : No
Text
ID : 5
Format : UTF-8
Codec ID : S_TEXT/UTF8
Codec ID/Info : UTF-8 Plain Text
Language : English
Default : Yes
Forced : No

Скриншоты для ознакомления



Все одноименные релизы в Клубе
Время раздачи: с 13: 00 до 01: 00 МСК, выходные круглосуточно (до появления первых 3-5 скачавших)

Другие торренты по теме:

  • Крыша мира (2016) SATRip (серии 1-3 из 20) (обновляемая)
  • Крыша мира (2016) WEB-DLRip (сезон 1, серии 1- из 20) (обновляемая)
  • Крыша мира (2016) WEB-DLRip [H.264 / 720p-LQ] (сезон 1, серии 1- из 20) (обновляемая)
  • Крыша мира (2016) WEB-DLRip [H.264 / 1080p-LQ] (сезон 1, серии 1- из 20) (обновляемая)
  • Крыша мира / Top of the World (1997) DVDRip [H.264] [AVO]
  • Крыша мира (2017) WEB-DLRip [H.264 / 1080p-LQ] (сезон 2, серии 1-4 из 20) (обновляемая)
  • Крыша мира (2017) SATRip (сезон 2, серии 1-6 из 20) (обновляемая)
  • Крыша мира (2017) WEB-DLRip [H.264] (сезон 2, серии 1-4 из 20) (обновляемая)

  • Посетители, находящиеся в группе Гости, не могут оставлять комментарии в данной новости.