Подписывайся на наш канал в Telegram https://t.me/torrentok и получи доступ к торрентам без ограничений!

Желтая земля / Huang tu di (Yellow Earth) (1984) DVDRip [CHI / RU sub] торрент скачать бесплатно

Желтая земля / Huang tu di (Yellow Earth) (1984) DVDRip [CHI / RU sub]Производство: Китай/Guangxi Film Studio
Жанр: драма, мелодрама, история, музыка
Режиссер: Чэнь Кайгэ

Актеры
Ван Сюэци, Сюэ Бай, Цуан Лью, То Тан

Описание

Весной 1939 г., в разгар японской агрессии, офицер Народно-освободительной армии Китая (НОАК), командирован в сельскую глубинку пров. Шэньси - найти подходящие народные мелодии для гимна революционной армии.
Он застает архаичную картину - продажа невест, семейная тирания, поголовная безграмотность. Но даже такая жизнь не убила в местных жителях человечности. Они готовы поделиться просяной лепешкой и самым дорогим, что у них есть - тоскливыми песнями о народной судьбе. Офицер, рассказывая о новой жизни, которая уже налаживается в районах, контролируемых НОАК, пробуждает интерес юной Сюйцяо, ее глаза загораются, как два уголька, и она уже не видит себя в патриархальной деревне…


Релиз от: Веселый Гном
Продолжительность: 01: 26: 24
Качество видео: DVDRip
Перевод: Отсутствует
Язык озвучки: Китайский
Субтитры: Русские (авторские — Веселый Гном), китайские
Видео: AVC/H.264, 698x446, ~2100 kbps
Аудио: AC3, 2 ch, 192 kbps
General
Unique ID : 121890227832783443213560880467046220843 (0x5BB3343773C5E958A389957EDBD2C42B)
Complete name : F: BUFERSБуферBousculer en µChinois. Huang tu di. 1984 (Yellow Earth)6 Huang tu di°. 1984 Перевод и субтитры - Веселый Гном.mkv
Format : Matroska
Format version : Version 4
File size : 1.38 GiB
Duration : 1 h 26 min
Overall bit rate : 2 294 kb/s
Movie name : Huang tu di. 1984
Encoded date : UTC 2020-08-24 16: 40: 03
Writing application : mkvmerge v29.0.0 (\'Like It Or Not\') 64-bit
Writing library : libebml v1.3.6 + libmatroska v1.4.9/Lavf58.49.100
Copyright : œuvre de Gnome Jovial
Video
ID : 1
Format : AVC
Format/Info : Advanced Video Codec
Format profile : [email protected]
Format settings : CABAC/9 Ref Frames
Format settings, CABAC : Yes
Format settings, ReFrames : 9 frames
Codec ID : V_MPEG4/ISO/AVC
Duration : 1 h 26 min
Bit rate : 2 100 kb/s
Width : 698 pixels
Height : 446 pixels
Display aspect ratio : 16: 10
Frame rate mode : Constant
Frame rate : 25.000 FPS
Color space : YUV
Chroma subsampling : 4: 2: 0
Bit depth : 8 bits
Scan type : Progressive
Bits/(Pixel*Frame) : 0.270
Stream size : 1.27 GiB (92%)
Writing library : x264 core 161 r3018
Encoding settings : cabac=1/ref=9/deblock=1: -3: -1/analyse=0x3: 0x133/me=umh/subme=9/psy=0/mixed_ref=1/me_range=32/chroma_me=1/trellis=2/8x8dct=1/cqm=0/deadzone=21, 11/fast_pskip=0/chroma_qp_offset=0/threads=14/lookahead_threads=2/sliced_threads=0/nr=0/decimate=0/interlaced=0/bluray_compat=0/constrained_intra=0/bframes=7/b_pyramid=2/b_adapt=2/b_bias=0/direct=3/weightb=1/open_gop=0/weightp=2/keyint=250/keyint_min=25/scenecut=40/intra_refresh=0/rc_lookahead=60/rc=2pass/mbtree=1/bitrate=2100/ratetol=1.0/qcomp=0.60/qpmin=10/qpmax=69/qpstep=4/cplxblur=20.0/qblur=0.5/ip_ratio=1.40/aq=1: 1.00
Language : Chinese
Default : Yes
Forced : No
Audio
ID : 2
Format : AC-3
Format/Info : Audio Coding 3
Commercial name : Dolby Digital
Codec ID : A_AC3
Duration : 1 h 26 min
Bit rate mode : Constant
Bit rate : 192 kb/s
Channel(s) : 2 channels
Channel layout : L R
Sampling rate : 48.0 kHz
Frame rate : 31.250 FPS (1536 SPF)
Bit depth : 16 bits
Compression mode : Lossy
Stream size : 119 MiB (8%)
Title : Stereo
Language : Chinese
Service kind : Complete Main
Default : Yes
Forced : No
Text #1
ID : 3
Format : UTF-8
Codec ID : S_TEXT/UTF8
Codec ID/Info : UTF-8 Plain Text
Duration : 1 h 25 min
Bit rate : 35 b/s
Count of elements : 350
Stream size : 22.0 KiB (0%)
Title : Веселый Гном, 2020
Language : Russian
Default : Yes
Forced : No
Text #2
ID : 4
Format : UTF-8
Codec ID : S_TEXT/UTF8
Codec ID/Info : UTF-8 Plain Text
Duration : 1 h 22 min
Bit rate : 17 b/s
Count of elements : 398
Stream size : 10.6 KiB (0%)
Language : Chinese
Default : No
Forced : No

Другие торренты по теме:

  • The Beatles: Желтая подводная лодка / Yellow Submarine (1968) BDRip скачать через торрент бесплатно
  • The Beatles: Желтая подводная лодка / Yellow Submarine (1968) BDRip скачать через торрент бесплатно
  • Желтая Ветка - Старые Школьники (2016) [MP3|320 кб / с] <Rap, Hip-Hop>
  • Уилки Коллинз | Желтая маска (2017) [MP3]
  • Желтая птица (1983) TVRip
  • Желтая гора / The Yellow Mountain (1954) WEB-DLRip [H.264] [AVO]
  • Эндрю Лэнг | Желтая книга сказок (2019) [EPUB]
  • Энид Блайтон | Желтая Книга фей (1998) [FB2, EPUB, MOBI]

  • Посетители, находящиеся в группе Гости, не могут оставлять комментарии в данной новости.