Подписывайся на наш канал в Telegram https://t.me/torrentok и получи доступ к торрентам без ограничений!

Цветок любви (Цветок любви Тхазин) / Chit Pan Thazin (Советская прокатная копия) (1956) Screener [Dub] торрент скачать бесплатно

Цветок любви (Цветок любви Тхазин) / Chit Pan Thazin (Советская прокатная копия) (1956) Screener [Dub]Производство: Бирма (Бирманский Союз/Мьянма), British Burma Film Production
Жанр: Драма, мелодрама
Режиссер: Чи Кин

Актеры
Ми Ми Кин, Сейя, У Сан Мыин, Пей Хан Чжи, Кин Ле, У По Мья, У Тхун, Мэри Мья

Описание

Сын рангунского землевладельца Тин Пэ заступился за рабочих, и отец за это выгнал его из дому. Во время своих странствий он выручил из беды дочь бедняка Нгуэ Чжао. Молодые люди полюбили друг друга и вскоре поженились. Но Тин Пэ пришлось уехать в Рангун, и он долго не возвращался оттуда. Начались разговоры, что Тин Пэ бросил жену и сына. Но Нгуэ Чжао верила мужу и сама поехала к нему, чтобы больше уже никогда не расставаться с ним.
Релиз от: Rip by vitolinform
Продолжительность: 01: 20: 59
Качество видео: Screener
Перевод: Дублированный (Киностудия им. М. Горького)
Субтитры: отсутствуют
Видео: Xvid, 624x464, ~2183 kbps
Аудио: AC3, 2 ch, 224 Кbps | Русский (Dub, Киностудия им. М. Горького)
Общее
Полное имя : C: Cvetol.lyubvi.1956.Screener.avi
Формат : AVI
Формат/Информация : Audio Video Interleave
Размер файла : 1, 37 Гбайт
Продолжительность : 1 ч. 20 м.
Общий поток : 2 416 Кбит/сек
Название фильма : Цветок любви/Цветок любви Тхазин/Chit Pan Thazin (1956) Screener
Режиссёр : Чи Кин/Chit Khin
Жанр : Драма, мелодрама
Программа кодирования : VirtualDubMod 1.5.10.2 (build 2542/release)
Формат оригинала/Имя : Художественный фильм
Авторское право : Бирма (Бирманский Союз/Мьянма), British Burma Film Production
Примечание : Rip by vitolinform
Видео
Идентификатор : 0
Формат : MPEG-4 Visual
Профиль формата : Advanced [email protected]
Настройки формата : BVOP1
Параметр BVOP формата : 1
Параметр QPel формата : Нет
Параметр GMC формата : Без точки перехода
Параметр матрицы формата : Default (MPEG)
Идентификатор кодека : XVID
Идентификатор кодека/Подсказка : XviD
Продолжительность : 1 ч. 20 м.
Битрейт : 2 183 Кбит/сек
Ширина : 624 пикселя
Высота : 464 пикселя
Соотношение сторон : 4: 3
Частота кадров : 23, 976 (24000/1001) кадра/сек
Цветовое пространство : YUV
Субдискретизация насыщенности : 4: 2: 0
Битовая глубина : 8 бит
Тип развёртки : Прогрессивная
Метод сжатия : С потерями
Бит/(Пиксели*Кадры) : 0.314
Размер потока : 1, 23 Гбайт (90%)
Библиотека кодирования : XviD 69
Аудио
Идентификатор : 1
Формат : AC-3
Формат/Информация : Audio Coding 3
Коммерческое название : Dolby Digital
Идентификатор кодека : 2000
Продолжительность : 1 ч. 20 м.
Вид битрейта : Постоянный
Битрейт : 224 Кбит/сек
Каналы : 2 канала
Channel layout : L R
Частота : 48, 0 КГц
Частота кадров : 31, 250 кадров/сек (1536 SPF)
Метод сжатия : С потерями
Размер потока : 130 Мбайт (9%)
Выравнивание : Разделение по промежуткам
Продолжительность промежутка : 42 мс. (1, 00 видеокадр)
Время предзагрузки промежутка : 500 мс.
Заголовок : Russian (DUB, Киностудия им. М. Горького)
Service kind : Complete Main

Скриншоты для ознакомления



Все одноименные релизы в Клубе
Время раздачи: 24/7 (мультитрекерная раздача) (до появления первых 3-5 скачавших)

Другие торренты по теме:

  • Цветок папоротника (2015) SATRip [H.264] (серии 1 из 16) (обновляемая) скачать через торрент бесплатно
  • Secrets of the Dark: The Flower of Shadow / Тайны Тьмы: Цветок Теней (2014) [Ru] Unofficial [Collectors Edition / Коллекционное издание] скачать через торрент бесплатно
  • Павел Бажов | Каменный цветок, Малахитовая шкатулка, Медной горы Хозяйка и другие сказы (2003) [MP3] скачать через торрент бесплатно
  • Андрей Золот | Золотой цветок (2015) [FB2] скачать через торрент бесплатно
  • Галина Нигматулина | Цветок змеиного дома (2016) [FB2] скачать через торрент бесплатно
  • Анна Данилова | Цветок предательства (2015) [FB2] скачать через торрент бесплатно
  • Цветок пустыни / Desert Flower (2009) HDRip
  • Glass no Hana to Kowasu Sekai | Garakowa: Restore the World | Vitreous Flower & Destroy the World | Хрустальный цветок в увядшем мире [2016, MV] BDrip 1080p Hi10p raw

  • Посетители, находящиеся в группе Гости, не могут оставлять комментарии в данной новости.