Подписывайся на наш канал в Telegram https://t.me/torrentok и получи доступ к торрентам без ограничений!

Лихач (2020) WEB-DL [H.264 / 1080p-LQ] (сезон 1, серии 1-2 из 20) (обновляемая) торрент скачать бесплатно

Лихач (2020) WEB-DL [H.264 / 1080p-LQ] (сезон 1, серии 1-2 из 20) (обновляемая)Производство: Россия/Киностудия КИТ
Жанр: детектив, приключения
Режиссер: Андрей Коршунов, Максим Демченко

Актеры
Никита Панфилов, Артур Мкртчян, Мария Сандлер, Иван Васильев, Игорь Качаев, Денис Пьянов, Ольга Павлюкова, Игорь Головин, Ульяна Никулина, Александра Камчатова и др.

Описание

37-летний Сергей Сотников – заместитель начальника уголовного розыска Сочи, в котором родился и прожил всю жизнь. Всему городу Сотников знаком под прозвищем Лихач, которое он получил за свой суровый нрав.Упрямый, справедливый, уверенный в себе Лихач смог за годы работы добиться главного – установить контроль над преступностью. Сотников давно бы мог возглавить уголовный розыск и даже стать начальником полиции, но кабинетные должности не для него.

Возраст: 16+ (зрителям, достигшим 16 лет)
Дата российской премьеры: 24 августа 2020 НТВ
Релиз от: ExKinoRay
Продолжительность: ~ 00: 49: 00 серия
Качество видео: WEB-DL
Видео: AVC/H.264, 1920x1080 (16: 9), ~6000 Kbps
Аудио: AC3, 2 ch, 192 Kbps
Общее
Уникальный идентификатор : 229228845553879483771508144512120573937 (0xAC73DEA9B3D167E4819CBA0C348ECFF1)
Полное имя : F: СЕРИАЛЫЛИХАЧLihach.S01.2020.WEB-DL.(1080p).ExKinoRayLihach.s01e01.2020.WEB-DL.(1080p).ExKinoRay.mkv
Формат : Matroska
Версия формата : Version 4
Размер файла : 2, 14 Гбайт
Продолжительность : 49 м. 35 с.
Режим общего битрейта : Постоянный
Общий поток : 6172 Кбит/сек
Дата кодирования : UTC 2020-08-24 19: 28: 23
Программа кодирования : mkvmerge v6.9.1 (\'Blue Panther\') 64bit built on Apr 18 2014 18: 23: 38
Библиотека кодирования : libebml v1.3.0 + libmatroska v1.4.1
Видео
Идентификатор : 1
Формат : AVC/AVC
Формат/Информация : Advanced Video Codec
Профиль формата : [email protected]/[email protected]
Настройки формата : 2 Ref Frames/16 Ref Frames
Параметр CABAC формата : Нет/Нет
Параметр RefFrames формата : 2 кадра/16 кадров
Идентификатор кодека : V_MPEG4/ISO/AVC
Продолжительность : 49 м. 35 с.
Вид битрейта : Постоянный
Битрейт : 6000 Кбит/сек
Ширина : 1920 пикселей
Ширина оригинала : 1920 пикселей/1920 пикселей
Высота : 1080 пикселей
Высота оригинала : 1080 пикселей/1080 пикселей
Соотношение сторон : 16: 9
Режим частоты кадров : Постоянный
Частота кадров : 25, 000 кадров/сек
Стандарт вещания : PAL
Цветовое пространство : YUV
Субдискретизация насыщенности : 4: 2: 0/4: 2: 0
Битовая глубина : 8 бит/8 бит
Тип развёртки : Прогрессивная/Progressive
Бит/(Пиксели*Кадры) : 0.116
Размер потока : 2, 03 Гбайт (95%)
Default : Да
Forced : Нет
Цветовой диапазон : Limited
Основные цвета : BT.709
Характеристики трансфера : BT.709
Коэффициенты матрицы : BT.709
Аудио
Идентификатор : 2
Формат : AC-3
Формат/Информация : Audio Coding 3
Коммерческое название : Dolby Digital
Идентификатор кодека : A_AC3
Продолжительность : 49 м. 35 с.
Вид битрейта : Постоянный
Битрейт : 192 Кбит/сек
Каналы : 2 канала
ChannelLayout : L R
Частота : 48, 0 КГц
Частота кадров : 31, 250 кадров/сек (1536 SPF)
Битовая глубина : 16 бит
Метод сжатия : С потерями
Размер потока : 68, 1 Мбайт (3%)
Язык : Russian
ServiceKind/String : Complete Main
Default : Да
Forced : Нет

Скриншоты для ознакомления



Все одноименные релизы в Клубе
Время раздачи: 24/7 (до появления первых 3-5 скачавших)

Другие торренты по теме:

  • Лихач (2020) SATRip [H.264] (сезон 1, серии 1-2 из 20) (обновляемая)

  • Посетители, находящиеся в группе Гости, не могут оставлять комментарии в данной новости.