Подписывайся на наш канал в Telegram https://t.me/torrentok и получи доступ к торрентам без ограничений!

Агентство О.К.О. (2020) WEB-DL [H.264 / 1080p-LQ] (сезон 1, серии 1-2 из 16) (обновляемая) торрент скачать бесплатно

Агентство О.К.О. (2020) WEB-DL [H.264 / 1080p-LQ] (сезон 1, серии 1-2 из 16) (обновляемая)Производство: Россия/LEGIO FELIX по заказу телеканала ТВ3
Жанр: детектив, мистика, криминал
Режиссер: Аня Мирохина

Актеры
Рина Гришина, Игорь Стам, Виктория Тарасова, Артём Ешкин, Евгений Венедиктов, Даниэла Стоянович, Сергей Троев, Марина Барсукова, Яков Левда, Виктория Буцких и др.

Описание

Бывший опер с Петровки работает в паре с девушкой-экстрасенсом. На частные деньги они занимаются поисками пропавших без вести, расследованием убийств, смертей и прочих дел, где оказалась бессильна полиция.

Возраст: 18+ (зрителям, достигшим 18 лет. запрещено для детей)
Дата российской премьеры: 24 августа 2020
Релиз от: Аlехаndr
Продолжительность: ~00: 48: 00 серия
Качество видео: WEB-DL
Внимание! Присутствует ненормативная лексика.
Видео: AVC/H.264, 1920x784 (2.40: 1), ~4375 Kbps
Аудио: AC3, 2 ch, 192 Kbps
Общее
Уникальный идентификатор : 103596867341843942758885457947029746611 (0x4DF007E8CA21386F6612840B821933B3)
Полное имя : G: Агентство О.К.О (2020)..by.AlexandrАгентство О.К.О. Серия 01.by.Alexandr.mkv
Формат : Matroska
Версия формата : Version 4
Размер файла : 1, 58 Гбайт
Продолжительность : 48 м. 34 с.
Режим общего битрейта : Переменный
Общий поток : 4 658 Кбит/сек
Программа кодирования : Lavf58.29.100
Библиотека кодирования : Lavf58.29.100
ErrorDetectionType : Per level 1
Видео
Идентификатор : 1
Формат : AVC
Формат/Информация : Advanced Video Codec
Профиль формата : [email protected]
Настройки формата : CABAC/1 Ref Frames
Параметр CABAC формата : Да
Параметр RefFrames формата : 1 кадр
Параметр GOP формата : M=1, N=50
Идентификатор кодека : V_MPEG4/ISO/AVC
Продолжительность : 48 м. 34 с.
Вид битрейта : Переменный
Битрейт : 4 373 Кбит/сек
Максимальный битрейт : 4 500 Кбит/сек
Ширина : 1 920 пикселей
Высота : 784 пикселя
Соотношение сторон : 2, 40: 1
Режим частоты кадров : Постоянный
Частота кадров : 25, 000 кадров/сек
Цветовое пространство : YUV
Субдискретизация насыщенности : 4: 2: 0
Битовая глубина : 8 бит
Тип развёртки : Прогрессивная
Бит/(Пиксели*Кадры) : 0.116
Размер потока : 1, 48 Гбайт (94%)
Default : Да
Forced : Нет
Аудио
Идентификатор : 2
Формат : AC-3
Формат/Информация : Audio Coding 3
Коммерческое название : Dolby Digital
Идентификатор кодека : A_AC3
Продолжительность : 48 м. 34 с.
Вид битрейта : Постоянный
Битрейт : 192 Кбит/сек
Каналы : 2 канала
Channel layout : L R
Частота : 48, 0 КГц
Частота кадров : 31, 250 кадров/сек (1536 SPF)
Метод сжатия : С потерями
Размер потока : 66, 7 Мбайт (4%)
Service kind : Complete Main
Default : Да
Forced : Нет

Другие торренты по теме:

  • Детективное агентство Дирка Джентли / Dirk Gentlys Holistic Detective Agency (2016) WEB-DL [H.264 / 720p-LQ] (сезон 1, серия 1 из 8) NewStudio (обновляемая)
  • Детективное агентство Дирка Джентли / Dirk Gentlys Holistic Detective Agency (2016) WEB-DL [H.264 / 720p-LQ] (сезон 1, серии 1-2 из 8) LostFilm (обновляемая)
  • Детективное агентство Дирка Джентли / Dirk Gentlys Holistic Detective Agency (2017) WEB-DL [H.264 / 720p-LQ] (сезон 2, серии 1 из 10) NewStudio (обновляемая)
  • Детективное агентство Дирка Джентли / Dirk Gentlys Holistic Detective Agency (2017) WEB-DL [H.264 / 1080p-LQ] (сезон 2, серии 1-4 из 10) NewStudio (обновляемая)

  • Посетители, находящиеся в группе Гости, не могут оставлять комментарии в данной новости.