Подписывайся на наш канал в Telegram https://t.me/torrentok и получи доступ к торрентам без ограничений!

Исчезновение / Scomparsa (2017) HDTVRip (сезон 1, серии 1-12 из 12) ViruseProject [AD] торрент скачать бесплатно

Исчезновение / Scomparsa (2017) HDTVRip (сезон 1, серии 1-12 из 12) ViruseProject [AD]Производство: Италия
Жанр: драма
Режиссер: Фабрицио Коста

Актеры
Ванесса Инконтрада, Джузеппе Дзено, Gianluca Caldironi, Ферруччо Ферранте, Rossella Ambrosini, Matteo de Buono, Matteo De Buono, Этторе Николетти, Федерико Руссо, Джанлука Ваннуччи и др.

Описание

Нора Телезе в одиночку воспитывает 16-летнюю дочь Камиллу. Однажды они переезжают из Милана в Сан-Бенедетто-дель-Тронто. Камилла быстро осваивается с такой переменой и без труда находит общий язык со своими сверстниками, в частности с Соней, которая вскоре становится её лучшей подругой. Как-то раз в субботу вечером девочки говорят родителям, что будут ночевать друг у друга, а сами идут на школьную вечеринку и не возвращаются с неё. В поисках дочери Нора обращается в дом Андреа Пазини, друга девушек, который сопровождал их на вечеринку, но тот заявляет, что девочки были в компании молодых людей, которые не учатся в их школе. Нора чувствует, что её дочь в беде, но где её искать и как ей помочь?


Релиз от: ViruseProject
Продолжительность: ~01: 30: 00 серия
Качество видео: HDTVRip
Перевод: Двуголосый профессиональный (ViruseProject)
Субтитры: русские (отдельными файлами)
Реклама: Присутствуют видео, аудио вставки рекламы
Видео: XviD, 640x352 (16: 9), ~1500 Kbps
Аудио #1: MP3, 2 ch, 128 Kbps - русский
Аудио #2: MP3, 2 ch, 128 Kbps - итальянский
Общее
Полное имя : F: ОЗВУЧКА888-ЗАЛИВ-888Scomparsa.S01.ViruseProjectScomparsa.S01.400p.ViruseProjectScomparsa.S01E01-02.400p.HDTVRip.ViruseProject.avi
Формат : AVI
Формат/Информация : Audio Video Interleave
Размер файла : 1, 12 Гбайт
Продолжительность : 1 ч. 30 м.
Режим общего битрейта : Переменный
Общий поток : 1 769 Кбит/сек
Программа кодирования : VirtualDubMod 1.5.10.2 (build 2540/release)
Библиотека кодирования : VirtualDubMod build 2540/release
Видео
Идентификатор : 0
Формат : MPEG-4 Visual
Профиль формата : Advanced [email protected]
Настройки формата : BVOP1
Параметр BVOP формата : 1
Параметр QPel формата : Нет
Параметр GMC формата : Без точки перехода
Параметр матрицы формата : Default (MPEG)
Идентификатор кодека : XVID
Идентификатор кодека/Подсказка : XviD
Продолжительность : 1 ч. 30 м.
Битрейт : 1 499 Кбит/сек
Ширина : 640 пикселей
Высота : 352 пикселя
Соотношение сторон : 16: 9
Частота кадров : 25, 000 кадров/сек
Цветовое пространство : YUV
Субдискретизация насыщенности : 4: 2: 0
Битовая глубина : 8 бит
Тип развёртки : Прогрессивная
Метод сжатия : С потерями
Бит/(Пиксели*Кадры) : 0.266
Размер потока : 971 Мбайт (85%)
Библиотека кодирования : XviD 67
Аудио #1
Идентификатор : 1
Формат : MPEG Audio
Версия формата : Version 1
Профиль формата : Layer 3
Настройки формата : Joint stereo/MS Stereo
Идентификатор кодека : 55
Идентификатор кодека/Подсказка : MP3
Продолжительность : 1 ч. 30 м.
Вид битрейта : Переменный
Битрейт : 128 Кбит/сек
Каналы : 2 канала
Частота : 48, 0 КГц
Частота кадров : 41, 667 кадра/сек (1152 SPF)
Метод сжатия : С потерями
Размер потока : 82, 9 Мбайт (7%)
Выравнивание : Соединение по промежуткам
Продолжительность промежутка : 40 мс. (1, 00 видеокадр)
Время предзагрузки промежутка : 504 мс.
Аудио #2
Идентификатор : 2
Формат : MPEG Audio
Версия формата : Version 1
Профиль формата : Layer 3
Настройки формата : Joint stereo/MS Stereo
Идентификатор кодека : 55
Идентификатор кодека/Подсказка : MP3
Продолжительность : 1 ч. 30 м.
Вид битрейта : Постоянный
Битрейт : 128 Кбит/сек
Каналы : 2 канала
Частота : 48, 0 КГц
Метод сжатия : С потерями
Размер потока : 82, 9 Мбайт (7%)
Выравнивание : Разделение по промежуткам
Продолжительность промежутка : 40 мс. (1, 00 видеокадр)
Время предзагрузки промежутка : 500 мс.
Библиотека кодирования : LAME3.100

Скриншоты для ознакомления



Все одноименные релизы в Клубе
Время раздачи: с 10: 00 до 24: 00 (до появления первых 3-5 скачавших)

Другие торренты по теме:

  • Исчезновение / Scomparsa (2017) HDTVRip [H.264 / 720p-LQ] (сезон 1, серии 1-12 из 12) ViruseProject [AD]

  • Посетители, находящиеся в группе Гости, не могут оставлять комментарии в данной новости.