Подписывайся на наш канал в Telegram https://t.me/torrentok и получи доступ к торрентам без ограничений!

Люцифер / Lucifer (2020) WEBRip (сезон 5, серии 1-3 из 16) ViruseProject (обновляемая) торрент скачать бесплатно

Люцифер / Lucifer (2020) WEBRip (сезон 5, серии 1-3 из 16) ViruseProject (обновляемая)Производство: США
Жанр: фэнтези, драма, криминал
Режиссер: Нэйтан Хоуп, Луис Шоу Милито, Карен Гавиола

Актеры
Лорен Джерман, Том Эллис, Кевин Алехандро, Лесли-Энн Брандт, Скарлетт Эстевес, Рэйчел Харрис, Д.Б. Вудсайд, Эйми Гарсиа, Триша Хелфер, Том Уэллинг и др.

Описание

Что делает дьявол, когда ему становится скучно в аду? Конечно же, открывает модный клуб в Лос-Анджелесе и, разумеется, постоянно вмешивается в дела людей. Например, становится напарником детектива из убойного отдела и помогает расследовать преступления.
Пережив множество приключений, драм, взлётов и падений, Люцифер Морнингстар эмоционально повзрослел и совершенно изменился. Теперь он готов вернуться обратно в преисподнюю и выполнять свой долг надзирателя за проклятыми душами. Или нет?
Смотрите 5 сезон любимого сериала и узнайте ответ на этот и многие другие вопросы.


Релиз от: ViruseProject
Продолжительность: ~00: 52: 00 серия
Качество видео: WEBRip
Перевод: Двуголосый профессиональный (ViruseProject)
Субтитры: Русские
Реклама: присутствуют видео, аудио вставки рекламы
Видео: XviD, 720x400 (16: 9), ~1800 Kbps
Аудио Rus: MP3, 2 ch, 128 Kbps - русский
Аудио Eng: MP3, 2 ch, 128 Kbps - английские
Общее
Полное имя : Lucifer.S05E01.400p.WEBRip.ViruseProject.avi
Формат : AVI
Формат/Информация : Audio Video Interleave
Размер файла : 773 Мбайт
Продолжительность : 52 м. 13 с.
Режим общего битрейта : Переменный
Общий поток : 2 070 Кбит/сек
Программа кодирования : VirtualDubMod 1.5.10.2 (build 2540/release)
Библиотека кодирования : VirtualDubMod build 2540/release
Видео
Идентификатор : 0
Формат : MPEG-4 Visual
Профиль формата : Advanced [email protected]
Настройки формата : BVOP1
Параметр BVOP формата : 1
Параметр QPel формата : Нет
Параметр GMC формата : Без точки перехода
Параметр матрицы формата : Default (MPEG)
Идентификатор кодека : XVID
Идентификатор кодека/Подсказка : XviD
Продолжительность : 52 м. 13 с.
Битрейт : 1 800 Кбит/сек
Ширина : 720 пикселей
Высота : 400 пикселей
Соотношение сторон : 16: 9
Частота кадров : 23, 976 (24000/1001) кадра/сек
Цветовое пространство : YUV
Субдискретизация насыщенности : 4: 2: 0
Битовая глубина : 8 бит
Тип развёртки : Прогрессивная
Метод сжатия : С потерями
Бит/(Пиксели*Кадры) : 0.261
Размер потока : 672 Мбайт (87%)
Библиотека кодирования : XviD 67
Аудио #1
Идентификатор : 1
Формат : MPEG Audio
Версия формата : Version 1
Профиль формата : Layer 3
Настройки формата : Joint stereo/MS Stereo
Идентификатор кодека : 55
Идентификатор кодека/Подсказка : MP3
Продолжительность : 52 м. 13 с.
Вид битрейта : Переменный
Битрейт : 128 Кбит/сек
Каналы : 2 канала
Частота : 48, 0 КГц
Частота кадров : 41, 667 кадра/сек (1152 SPF)
Метод сжатия : С потерями
Размер потока : 47, 8 Мбайт (6%)
Выравнивание : Соединение по промежуткам
Продолжительность промежутка : 42 мс. (1, 00 видеокадр)
Время предзагрузки промежутка : 504 мс.
Аудио #2
Идентификатор : 2
Формат : MPEG Audio
Версия формата : Version 1
Профиль формата : Layer 3
Настройки формата : Joint stereo/MS Stereo
Идентификатор кодека : 55
Идентификатор кодека/Подсказка : MP3
Продолжительность : 52 м. 13 с.
Вид битрейта : Постоянный
Битрейт : 128 Кбит/сек
Каналы : 2 канала
Частота : 48, 0 КГц
Метод сжатия : С потерями
Размер потока : 47, 8 Мбайт (6%)
Выравнивание : Разделение по промежуткам
Продолжительность промежутка : 42 мс. (1, 00 видеокадр)
Время предзагрузки промежутка : 500 мс.
Библиотека кодирования : LAME3.100

Скриншоты для ознакомления


Все одноименные релизы в Клубе
Время раздачи: с 10: 00 до 24: 00 (до появления первых 3-5 скачавших)

Другие торренты по теме:

  • Люцифер / Lucifer (2020) WEBRip [H.264 / 1080p-LQ](сезон 5, серии 1-3 из 16) ViruseProject (обновляемая)
  • Люцифер / Lucifer (2020) WEBRip [H.264 / 1080p-LQ] (сезон 5, серии 1-8 из 16) OmskBird (обновляемая) [AD]
  • Люцифер / Lucifer (2020) WEBRip [H.264 / 720p-LQ] (сезон 5, серии 1-8 из 16) OmskBird (обновляемая) [AD]
  • Люцифер / Lucifer (2020) WEBRip (сезон 5, серии 1-8 из 16) OmskBird (обновляемая) [AD]
  • Люцифер / Lucifer (2020) WEB-DL [H.264 / 720p-LQ] (сезон 5, серии 1 из 16) LostFilm (обновляемая)
  • Люцифер / Lucifer (2020) WEB-DLRip [H.264 / 1080p-LQ] (сезон 5, серии 1-8 из 16) VSI Moscow (обновляемая)
  • Люцифер / Lucifer (2015) HDTV [H.264 / 720p-LQ] (сезон 1, серия 1 из ) [EN / RU, EN Sub] скачать через торрент бесплатно
  • Люцифер / Lucifer (2015) HDTV [H.264 / 1080p] (сезон 1, серии 1 из ) NewStudio (обновляемая) скачать через торрент бесплатно

  • Посетители, находящиеся в группе Гости, не могут оставлять комментарии в данной новости.