Подписывайся на наш канал в Telegram https://t.me/torrentok и получи доступ к торрентам без ограничений!

Запретный плод / Yasak Elma (2019) WEB-DLRip [H.264 / 1080p-LQ] (сезон 3, серии 1-27 из 27) SesDizi [PR] торрент скачать бесплатно

Запретный плод / Yasak Elma (2019) WEB-DLRip [H.264 / 1080p-LQ] (сезон 3, серии 1-27 из 27) SesDizi [PR]Производство: Турция/Medyapim
Жанр: драма, мелодрама
Режиссер: Неслихан Есилюрт

Актеры
Талат Булут, Шевваль Сам, Эда Эдже, Онур Туна, Севда Эргинджи, Шафак Пекдемир, Барыш Айтач, Илбер Уйгар Кабоглу, Нилгюн Тюрксевер и др.

Описание

Зейнеп и Йылдыз - две сестры, они совсем непохожи друг на друга и у них совершенно разные цели и мечты. Жизнь Йылдыз меняется, когда она знакомится со светской львицей Эндер Аргун. Эндер решила с помощью Йылдыз избавиться от своего мужа Халита, и делает ей удивительное предложение. В то время, как в жизни Йылдыз происходят эти события, фирму, в которой работает Зейнеп, покупает Алихан Ташдемир. Алихан очень высокомерный, заносчивый и богатый бизнесмен. Стычки Зейнеп и Алихана в короткое время превращаются в притяжение. Но Зейнеп не знает, что Алихан - компаньон Халита и брат его жены Эндер, а решение, принятое Йылдыз, затронет не только ее саму, но и Зейнеп.


Продолжительность: ~02: 00: 00 серия
Качество видео: WEB-DLRip
Перевод: Одноголосый любительский (SesDizi)
Видео: AVC/H.264, 1920x1080 (16: 9), ~1785 kbps
Аудио: AAC, 2 ch, 192 kbps
General
Unique ID : 163978690209734212662682139381359982454 (0x7B5D259FEED31BB08EB96667F85C3776)
Complete name : D: Zapretniy.Plod.s03.WEB-DLRip1080p.SesDiziZapretniy.Plod.s03.e48.WEB-DLRip1080p.SesDizi.mkv
Format : Matroska
Format version : Version 4
File size : 1.63 GiB
Duration : 1 h 57 min
Overall bit rate : 1 978 kb/s
Encoded date : UTC 2020-08-25 09: 29: 02
Writing application : mkvmerge v47.0.0 (\'Black Flag\') 64-bit
Writing library : libebml v1.3.10 + libmatroska v1.5.2
Video
ID : 1
Format : AVC
Format/Info : Advanced Video Codec
Format profile : [email protected]
Format settings : CABAC/3 Ref Frames
Format settings, CABAC : Yes
Format settings, Reference fra : 3 frames
Codec ID : V_MPEG4/ISO/AVC
Duration : 1 h 57 min
Bit rate : 1 785 kb/s
Width : 1 920 pixels
Height : 1 080 pixels
Display aspect ratio : 16: 9
Frame rate mode : Constant
Frame rate : 25.000 FPS
Color space : YUV
Chroma subsampling : 4: 2: 0
Bit depth : 8 bits
Scan type : Progressive
Bits/(Pixel*Frame) : 0.034
Stream size : 1.47 GiB (90%)
Writing library : x264 core 155 r2901 7d0ff22
Default : Yes
Forced : No
Color range : Limited
Color primaries : BT.709
Transfer characteristics : BT.709
Matrix coefficients : BT.709
Audio
ID : 2
Format : AAC LC
Format/Info : Advanced Audio Codec Low Complexity
Codec ID : A_AAC-2
Duration : 1 h 57 min
Bit rate : 192 kb/s
Channel(s) : 2 channels
Channel layout : L R
Sampling rate : 44.1 kHz
Frame rate : 43.066 FPS (1024 SPF)
Compression mode : Lossy
Delay relative to video : -40 ms
Stream size : 161 MiB (10%)
Default : Yes
Forced : No

Скриншоты для ознакомления



Все одноименные релизы в Клубе
Время раздачи: с 11: 00 до 3: 00 (до появления первых 3-5 скачавших)

Другие торренты по теме:

  • Специальный репортаж. Запретный плод (2016.03.14) SATRip
  • Запретный плод / Yasak Elma (2018) WEB-DLRip [H.264 / 1080p-LQ] (сезон 1, серии 1-12 из 12) SesDizi [PR]
  • Запретный плод / Yasak Elma (2018) WEB-DLRip [H.264 / 720p-1080p-LQ] (сезон 2, серии 1-35 из 35) SesDizi [PR]

  • Посетители, находящиеся в группе Гости, не могут оставлять комментарии в данной новости.