Подписывайся на наш канал в Telegram https://t.me/torrentok и получи доступ к торрентам без ограничений!

Полное уничтожение / Hard Kill (2020) WEB-DLRip [H.264] [MVO] торрент скачать бесплатно

Полное уничтожение / Hard Kill (2020) WEB-DLRip [H.264] [MVO]Производство: США/BondIt, Buffalo 8 Productions, Emmett/Furla Films, River Bay Films, SSS Entertainment
Жанр: Боевик, триллер
Режиссер: Мэтт Эскандари
Продюсер: Марк Стюарт, Тимоти С. Салливан, Ли Брода

Актеры
Брюс Уиллис, Джесси Меткалф, Серджо Риццуто, Лорин Кент, Тексас Бэттл, Лиа Хаттон Бисмор, Джон Е. Браунли, Javon Cameron, Александр Экерт, Лесли Эмметт

Описание

У миллиардера и владельца крупной корпорации Донована Чалмерса террористическая организация похищает дочь, чтобы шантажировать его и получить доступ к передовым технологиям, с которыми работает его компания


Рейтинг MPAA: R (лицам до 17 лет обязательно присутствие взрослого)
Дата мировой премьеры: 21 августа 2020
Релиз от : MediaBit
Продолжительность: 01: 38: 24
Качество видео: WEB-DLRip
Перевод: Многоголосый любительский (@[email protected])
Субтитры: Отсутствуют
Видео: AVC/H.264, 1032x430, 2989 Kbps
Аудио: AC3, 2 ch, 256 Kbps - Русский (MVO)
Общее
Уникальный идентификатор : 67859829737919677334307433343917249066 (0x330D53EB71748FE9CEAB875D98E4522A)
Полное имя : Hard Kill (2020)_WEB-DLRip-AVC_wolf1245_MediaBit.mkv
Формат : Matroska
Версия формата : Version 4
Размер файла : 2, 23 Гбайт
Продолжительность : 1 ч. 38 м.
Общий поток : 3244 Кбит/сек
Название фильма : Hard Kill (2020)_WEB-DLRip-AVC_wolf1245_MediaBit
Дата кодирования : UTC 2020-08-26 18: 21: 13
Программа кодирования : mkvmerge v49.0.0 (\'Sick Of Losing Soulmates\') 64-bit
Библиотека кодирования : libebml v1.4.0 + libmatroska v1.6.1
Обложка : Yes
Attachments : Cover.jpg
Видео
Идентификатор : 1
Формат : AVC
Формат/Информация : Advanced Video Codec
Профиль формата : [email protected]
Настройки формата : CABAC/8 Ref Frames
Параметр CABAC формата : Да
Параметр RefFrames формата : 8 кадров
Идентификатор кодека : V_MPEG4/ISO/AVC
Продолжительность : 1 ч. 38 м.
Битрейт : 2989 Кбит/сек
Ширина : 1032 пикселя
Высота : 430 пикселей
Соотношение сторон : 2, 40: 1
Режим частоты кадров : Постоянный
Частота кадров : 23, 976 (24000/1001) кадра/сек
Цветовое пространство : YUV
Субдискретизация насыщенности : 4: 2: 0
Битовая глубина : 8 бит
Тип развёртки : Прогрессивная
Бит/(Пиксели*Кадры) : 0.281
Размер потока : 2, 05 Гбайт (92%)
Заголовок : wolf1245_MediaBit
Библиотека кодирования : x264 core 157 r2958 57baac4
Настройки программы : cabac=1/ref=8/deblock=1: -3: -3/analyse=0x3: 0x133/me=umh/subme=11/psy=1/psy_rd=1.00: 0.15/mixed_ref=1/me_range=48/chroma_me=1/trellis=2/8x8dct=1/cqm=0/deadzone=21, 11/fast_pskip=0/chroma_qp_offset=-3/threads=10/lookahead_threads=1/sliced_threads=0/nr=0/decimate=0/interlaced=0/bluray_compat=0/constrained_intra=0/bframes=8/b_pyramid=2/b_adapt=2/b_bias=8/direct=3/weightb=1/open_gop=0/weightp=2/keyint=240/keyint_min=24/scenecut=40/intra_refresh=0/rc_lookahead=60/rc=2pass/mbtree=0/bitrate=2989/ratetol=1.0/qcomp=0.60/qpmin=0/qpmax=69/qpstep=4/cplxblur=20.0/qblur=0.5/vbv_maxrate=50000/vbv_bufsize=62500/nal_hrd=none/filler=0/ip_ratio=1.40/pb_ratio=1.30/aq=1: 1.00
Язык : English
Default : Да
Forced : Нет
Цветовой диапазон : Limited
Основные цвета : BT.709
Характеристики трансфера : BT.709
Коэффициенты матрицы : BT.709
Аудио
Идентификатор : 2
Формат : AC-3
Формат/Информация : Audio Coding 3
Коммерческое название : Dolby Digital
Идентификатор кодека : A_AC3
Продолжительность : 1 ч. 38 м.
Вид битрейта : Постоянный
Битрейт : 256 Кбит/сек
Каналы : 2 канала
Channel layout : L R
Частота : 48, 0 КГц
Частота кадров : 31, 250 кадров/сек (1536 SPF)
Битовая глубина : 16 бит
Метод сжатия : С потерями
Размер потока : 180 Мбайт (8%)
Заголовок : MVO @[email protected] MediaBit
Язык : Russian
ServiceKind/String : Complete Main
Default : Да
Forced : Нет
Скриншоты для ознакомления



Все одноименные релизы в Клубе
Время раздачи: 24/7 (мультитрекерная раздача)

Другие торренты по теме:

  • Американский ниндзя 4: Полное уничтожение / American Ninja 4: The Annihilation (1990) BDRip скачать через торрент бесплатно
  • Полное уничтожение / Hard Kill (2020) WEB-DL [H.264 / 1080p] [MVO]

  • Посетители, находящиеся в группе Гости, не могут оставлять комментарии в данной новости.