Подписывайся на наш канал в Telegram https://t.me/torrentok и получи доступ к торрентам без ограничений!

Полное уничтожение / Hard Kill (2020) WEB-DL [H.264 / 1080p] [MVO] торрент скачать бесплатно

Полное уничтожение / Hard Kill (2020) WEB-DL [H.264 / 1080p] [MVO]Производство: США/BondIt, Buffalo 8 Productions, Emmett/Furla Films, River Bay Films, SSS Entertainment
Жанр: Боевик, триллер
Режиссер: Мэтт Эскандари
Продюсер: Марк Стюарт, Тимоти С. Салливан, Ли Брода

Актеры
Брюс Уиллис, Джесси Меткалф, Серджо Риццуто, Лорин Кент, Тексас Бэттл, Лиа Хаттон Бисмор, Джон Е. Браунли, Javon Cameron, Александр Экерт, Лесли Эмметт

Описание

У миллиардера и владельца крупной корпорации Донована Чалмерса террористическая организация похищает дочь, чтобы шантажировать его и получить доступ к передовым технологиям, с которыми работает его компания


Рейтинг MPAA: R (лицам до 17 лет обязательно присутствие взрослого)
Дата мировой премьеры: 21 августа 2020
Релиз от : MediaBit
Продолжительность: 01: 38: 24
Качество видео: WEB-DL (Amazon)
Перевод: Многоголосый любительский (@[email protected])
Субтитры: Английские
Видео: AVC/H.264, 1920x800, 8453 Kbps
Аудио 1: AC3, 2 ch, 256 Kbps - Русский (MVO)
Аудио 2: AC3, 6 ch, 640 Kbps - Английский (Оригинал)
Общее
Уникальный идентификатор : 222128044634598236349444343040339712576 (0xA71C4E25D8C53DD73F3A88082AB19A40)
Полное имя : Polnoe.unichtozhenie.2020.x264.WEB-DL(1080p)-MediaBit.mkv
Формат : Matroska
Версия формата : Version 4
Размер файла : 6, 43 Гбайт
Продолжительность : 1 ч. 38 м.
Общий поток : 9 351 Кбит/сек
Название фильма : Полное уничтожение/Hard Kill (2020)
Дата кодирования : UTC 2020-08-26 16: 02: 46
Программа кодирования : mkvmerge v25.0.0 (\'Prog Noir\') 64-bit
Библиотека кодирования : libebml v1.3.6 + libmatroska v1.4.9
Видео
Идентификатор : 1
Формат : AVC
Формат/Информация : Advanced Video Codec
Профиль формата : [email protected]
Настройки формата : CABAC/4 Ref Frames
Параметр CABAC формата : Да
Параметр RefFrames формата : 4 кадра
Идентификатор кодека : V_MPEG4/ISO/AVC
Продолжительность : 1 ч. 38 м.
Вид битрейта : Постоянный
Битрейт : 8 453 Кбит/сек
Номинальный битрейт : 10 000 Кбит/сек
Ширина : 1 920 пикселей
Высота : 800 пикселей
Соотношение сторон : 2, 40: 1
Режим частоты кадров : Постоянный
Частота кадров : 23, 976 (24000/1001) кадра/сек
Цветовое пространство : YUV
Субдискретизация насыщенности : 4: 2: 0
Битовая глубина : 8 бит
Тип развёртки : Прогрессивная
Бит/(Пиксели*Кадры) : 0.230
Размер потока : 5, 81 Гбайт (90%)
Заголовок : NTG
Язык : English
Default : Да
Forced : Нет
Цветовой диапазон : Limited
Основные цвета : BT.709
Характеристики трансфера : BT.709
Коэффициенты матрицы : BT.709
Аудио #1
Идентификатор : 2
Формат : AC-3
Формат/Информация : Audio Coding 3
Коммерческое название : Dolby Digital
Идентификатор кодека : A_AC3
Продолжительность : 1 ч. 38 м.
Вид битрейта : Постоянный
Битрейт : 256 Кбит/сек
Каналы : 2 канала
Channel layout : L R
Частота : 48, 0 КГц
Частота кадров : 31, 250 кадров/сек (1536 SPF)
Метод сжатия : С потерями
Размер потока : 180 Мбайт (3%)
Заголовок : MVO @[email protected] MediaBit
Язык : Russian
Service kind : Complete Main
Default : Да
Forced : Нет
Аудио #2
Идентификатор : 3
Формат : AC-3
Формат/Информация : Audio Coding 3
Коммерческое название : Dolby Digital
Идентификатор кодека : A_AC3
Продолжительность : 1 ч. 38 м.
Вид битрейта : Постоянный
Битрейт : 640 Кбит/сек
Каналы : 6 каналов
Channel layout : L R C LFE Ls Rs
Частота : 48, 0 КГц
Частота кадров : 31, 250 кадров/сек (1536 SPF)
Метод сжатия : С потерями
Размер потока : 450 Мбайт (7%)
Заголовок : Original
Язык : English
Service kind : Complete Main
Default : Нет
Forced : Нет
Текст #1
Идентификатор : 4
Формат : UTF-8
Идентификатор кодека : S_TEXT/UTF8
Идентификатор кодека/Информация : UTF-8 Plain Text
Продолжительность : 1 ч. 30 м.
Битрейт : 40 бит/сек
Count of elements : 1009
Размер потока : 27, 0 Кбайт (0%)
Язык : English
Default : Нет
Forced : Нет
Текст #2
Идентификатор : 5
Формат : UTF-8
Идентификатор кодека : S_TEXT/UTF8
Идентификатор кодека/Информация : UTF-8 Plain Text
Продолжительность : 1 ч. 30 м.
Битрейт : 44 бит/сек
Count of elements : 1138
Размер потока : 29, 2 Кбайт (0%)
Заголовок : SDH
Язык : English
Default : Нет
Forced : Нет

Скриншоты для ознакомления



Все одноименные релизы в Клубе
Время раздачи: 24/7 (мультитрекерная раздача)

Другие торренты по теме:

  • Полное уничтожение / Hard Kill (2020) WEB-DLRip [H.264] [MVO]
  • Американский ниндзя 4: Полное уничтожение / American Ninja 4: The Annihilation (1990) BDRip скачать через торрент бесплатно

  • Посетители, находящиеся в группе Гости, не могут оставлять комментарии в данной новости.