Подписывайся на наш канал в Telegram https://t.me/torrentok и получи доступ к торрентам без ограничений!

Поезд в Пусан 2: Полуостров / Bando (Train to Busan 2) (2020) WEB-DLRip [Line, AD] торрент скачать бесплатно

Поезд в Пусан 2: Полуостров / Bando (Train to Busan 2) (2020) WEB-DLRip [Line, AD]Производство: Корея Южная/Movic Comics, Next Entertainment World, RedPeter Film
Жанр: ужасы, боевик
Режиссер: Ён Сан-хо

Актеры
Кан Дон-вон, Ли Джон-хён, Ли Рэ, Квон Хэ-хё, Ким Мин-джэ, Ку Гё-хван, Ким До-юн, Ли Е-вон, Хван Ён-хи, Ким Чхоль-юн

Описание

Через четыре года после вспышки страшного вируса, распространение которого Южная Корея сдержать не смогла, то, что осталось от страны, находится в блокаде, а полчища зомби разгуливают по всему полуострову. Бывший военный в составе спецотряда отправляется в закрытую зону, чтобы отыскать припрятанные деньги, и теперь ему предстоит пробираться по жуткому миру, где помимо означенной угрозы опасность представляют и люди, устраивающие жестокие игры на выживание.


Возраст: 18+ (зрителям, достигшим 18 лет. запрещено для детей)
Дата мировой премьеры: 15 июля 2020
Дата российской премьеры: 20 августа 2020, ПРОвзгляд
Продолжительность: 01: 55: 33
Качество видео: WEB-DLRip
Перевод: Дублированный (Line)
Субтитры: Корейские (вшитые, не отключаемые)
Реклама: Присутствует баннер, звуковая реклама
Видео: Xvid, 720x304, 1481 kbps
Аудио: AC3, 2 ch, 192 Kbps - Русский (DUB)
Общее
Полное имя : Train to Busan 2.(2020).Line.WEB-DLRip.avi
Формат : AVI
Формат/Информация : Audio Video Interleave
Размер файла : 1, 36 Гбайт
Продолжительность : 1 ч. 55 м.
Общий поток : 1683 Кбит/сек
Видео
Идентификатор : 0
Формат : MPEG-4 Visual
Профиль формата : Advanced [email protected]
Настройки формата : BVOP2/Custom Matrix
Параметр BVOP формата : 2
Параметр QPel формата : Нет
Параметр GMC формата : Без точки перехода
Параметр матрицы формата : Выборочная
Идентификатор кодека : XVID
Идентификатор кодека/Подсказка : XviD
Продолжительность : 1 ч. 55 м.
Битрейт : 1481 Кбит/сек
Ширина : 720 пикселей
Высота : 304 пикселя
Соотношение сторон : 2, 35: 1
Частота кадров : 23, 976 (23976/1000) кадра/сек
Цветовое пространство : YUV
Субдискретизация насыщенности : 4: 2: 0
Битовая глубина : 8 бит
Тип развёртки : Прогрессивная
Метод сжатия : С потерями
Бит/(Пиксели*Кадры) : 0.282
Размер потока : 1, 19 Гбайт (88%)
Библиотека кодирования : XviD 1.2.1 (UTC 2008-12-04)
Аудио
Идентификатор : 1
Формат : AC-3
Формат/Информация : Audio Coding 3
Коммерческое название : Dolby Digital
Идентификатор кодека : 2000
Продолжительность : 1 ч. 55 м.
Вид битрейта : Постоянный
Битрейт : 192 Кбит/сек
Каналы : 2 канала
Channel layout : L R
Частота : 48, 0 КГц
Частота кадров : 31, 250 кадров/сек (1536 SPF)
Битовая глубина : 16 бит
Метод сжатия : С потерями
Размер потока : 159 Мбайт (11%)
Выравнивание : Соединение по промежуткам
Продолжительность промежутка : 32 мс. (0, 77 видеокадр)
ServiceKind/String : Complete Main

Скриншоты для ознакомления



Все одноименные релизы в Клубе
Время раздачи: 24/7 (мультитрекерная раздача)

Другие торренты по теме:

  • Поезд в Пусан 2: Полуостров / Bando (Train to Busan 2) (2020) WEB-DLRip [H.264 / 1080p-LQ] [Line, AD]
  • Поезд в Пусан 2: Полуостров / Bando (Train to Busan 2) (2020) WEB-DLRip [H.264 / 720p-LQ] [Line, AD]
  • Поезд в Пусан 2: Полуостров / Bando (Train to Busan 2) (2020) WEB-DLRip [MVO]
  • Поезд в Пусан 2: Полуостров / Bando (Train to Busan 2) (2020) WEB-DLRip [H.264 / 1080p-LQ] [Line, AD]
  • Поезд в Пусан 2: Полуостров / Bando (Train to Busan 2) (2020) WEB-DL [H.264 / 1080p-LQ] [MVO]
  • Поезд в Пусан / Train to Busan / Busanhaeng (2016) WEBRip [H.264 / 720p-LQ]
  • Поезд в Пусан / Busanhaeng (2016) WEBRip [H.264 / 1080p-LQ]
  • Поезд в Пусан / Busanhaeng (2016) WEBRip

  • Посетители, находящиеся в группе Гости, не могут оставлять комментарии в данной новости.