Подписывайся на наш канал в Telegram https://t.me/torrentok и получи доступ к торрентам без ограничений!

Карты, деньги, два ствола / Lock, Stock and Two Smoking Barrels (1998) HDTVRip [H.264 / 720p] торрент скачать бесплатно

Карты, деньги, два ствола / Lock, Stock and Two Smoking Barrels (1998) HDTVRip [H.264 / 720p]Производство: Великобритания/Summit Entertainment, The Steve Tisch Company, SKA Films
Жанр: Комедия, криминал
Режиссер: Гай Ричи

Актеры
Джейсон Флеминг, Декстер Флетчер, Ник Моран, Джейсон Стэйтем, Стивен Макинтош, Николас Роу, Ник Марк, Чарльз Форбс, Винни Джонс, Ленни МакЛин

Описание

Четверо молодых парней накопили каждый по 25 тысяч фунтов, чтобы один из них мог сыграть в карты с опытным шулером и матерым преступником, известным по кличке Гарри-Топор. Парень в итоге проиграл 500 тысяч, на уплату долга ему дали неделю. В противном случае и ему и его спонсорам каждый день будут отрубать по пальцу, а потом… Чтобы выйти из положения, ребята решили ограбить бандитов, решивших ограбить трех ботаников, выращивающих марихуану для местного наркобарона. Но на этом приключения четверки не заканчиваются…


Возраст: 18+ (зрителям, достигшим 18 лет. запрещено для детей)
Рейтинг MPAA: R (лицам до 17 лет обязательно присутствие взрослого)
Продолжительность: 01: 43: 10
Качество видео: HDTVRip
Перевод: Многоголосый профессиональный, авторский
Субтитры: Русские, Английские, Турецкие
Видео: AVC/H.264, 1280x696 (16: 9), ~5704 Kbps
Аудио 1: AC3, 6 ch, 384 Kbps - Русский (MVO)
Аудио 2: AC3, 6 ch, 384 Kbps - Русский (AVO, Ю.Сербин)
Аудио 3: AC3, 6 ch, 384 Kbps - Русский (AVO, Д.Пучков Goblin)(ненормативная лексика)
Аудио 4: AC3, 6 ch, 384 Kbps - Английский
General
Unique ID : 253688417444637475370086734265278932385 (0xBEDA9CAA12476B2BBA3C5F550E3625A1)
Complete name : D: ФантоцциLock.Stock.and.Two.Smoking.Barrels.1998.HDTV.720p.TripleRusEngAC3.HDCLUB.mkv
Format : Matroska
File size : 5.20 GiB
Duration : 1h 43mn
Overall bit rate : 7 217 Kbps
Movie name : Lock.Stock.and.Two.Smoking.Barrels.(1998) - Release for HDClub
Encoded date : UTC 2008-10-29 10: 11: 20
Writing application : mkvmerge v2.1.0 (\'Another Place To Fall\') built on Aug 19 2007 13: 40: 07
Writing library : libebml v0.7.7 + libmatroska v0.8.1
Video
ID : 1
Format : AVC
Format/Info : Advanced Video Codec
Format profile : [email protected]
Format settings, CABAC : Yes
Format settings, ReFrames : 5 frames
Codec ID : V_MPEG4/ISO/AVC
Duration : 1h 43mn
Bit rate : 5 704 Kbps
Width : 1 280 pixels
Height : 696 pixels
Display aspect ratio : 16: 9
Frame rate : 25.000 fps
Color space : YUV
Chroma subsampling : 4: 2: 0
Bit depth : 8 bits
Scan type : Progressive
Bits/(Pixel*Frame) : 0.256
Stream size : 3.99 GiB (77%)
Title : Release for HDClub
Writing library : x264 core 60 r895M 16b8f79
Encoding settings : cabac=1/ref=5/deblock=1: -3: -3/analyse=0x3: 0x113/me=umh/subme=7/rdcmp=psy/brdo=1/mixed_ref=1/me_range=16/chroma_me=1/trellis=2/8x8dct=1/cqm=2/deadzone=21, 11/chroma_qp_offset=0/threads=3/nr=0/decimate=1/mbaff=0/bframes=3/b_pyramid=1/b_adapt=1/b_bias=0/direct=3/wpredb=1/bime=1/keyint=250/keyint_min=25/scenecut=40(pre)/rc=2pass/bitrate=5704/ratetol=1.0/rceq=\'blurCplx^(1-qComp)\'/qcomp=1.00/qpmin=10/qpmax=51/qpstep=4/cplxblur=20.0/qblur=0.5/ip_ratio=1.40/pb_ratio=1.30/aq=2: 1.00
Language : English
Audio #1
ID : 2
Format : AC-3
Format/Info : Audio Coding 3
Mode extension : CM (complete main)
Codec ID : A_AC3
Duration : 1h 43mn
Bit rate mode : Constant
Bit rate : 384 Kbps
Channel(s) : 6 channels
Channel positions : Front: L C R, Side: L R, LFE
Sampling rate : 48.0 KHz
Bit depth : 16 bits
Compression mode : Lossy
Stream size : 283 MiB (5%)
Title : AC3 5.1 384k Mnogogoloska
Language : Russian
Audio #2
ID : 3
Format : AC-3
Format/Info : Audio Coding 3
Mode extension : CM (complete main)
Codec ID : A_AC3
Duration : 1h 43mn
Bit rate mode : Constant
Bit rate : 384 Kbps
Channel(s) : 6 channels
Channel positions : Front: L C R, Side: L R, LFE
Sampling rate : 48.0 KHz
Bit depth : 16 bits
Compression mode : Lossy
Stream size : 283 MiB (5%)
Title : AC3 5.1 384k Serbin
Language : Russian
Audio #3
ID : 4
Format : AC-3
Format/Info : Audio Coding 3
Mode extension : CM (complete main)
Codec ID : A_AC3
Duration : 1h 43mn
Bit rate mode : Constant
Bit rate : 384 Kbps
Channel(s) : 6 channels
Channel positions : Front: L C R, Side: L R, LFE
Sampling rate : 48.0 KHz
Bit depth : 16 bits
Compression mode : Lossy
Stream size : 283 MiB (5%)
Title : AC3 5.1 384k Goblin
Language : Russian
Audio #4
ID : 5
Format : AC-3
Format/Info : Audio Coding 3
Mode extension : CM (complete main)
Codec ID : A_AC3
Duration : 1h 43mn
Bit rate mode : Constant
Bit rate : 384 Kbps
Channel(s) : 6 channels
Channel positions : Front: L C R, Side: L R, LFE
Sampling rate : 48.0 KHz
Bit depth : 16 bits
Compression mode : Lossy
Delay relative to video : 17ms
Stream size : 283 MiB (5%)
Title : AC3 5.1 - 384 Kbps
Language : English
Text #1
ID : 6
Format : UTF-8
Codec ID : S_TEXT/UTF8
Codec ID/Info : UTF-8 Plain Text
Language : Russian
Text #2
ID : 7
Format : UTF-8
Codec ID : S_TEXT/UTF8
Codec ID/Info : UTF-8 Plain Text
Language : English
Text #3
ID : 8
Format : UTF-8
Codec ID : S_TEXT/UTF8
Codec ID/Info : UTF-8 Plain Text
Language : Turkish

Другие торренты по теме:

  • Карты, деньги, два ствола / Lock, Stock and Two Smoking Barrels (1998) BDRip [H.264 / 720p]
  • Карты, деньги, два ствола / Lock, Stock and Two Smoking Barrels (1998) BDRip [H.264]
  • Карты, деньги, два ствола / Lock, Stock and Two Smoking Barrels (1998) BDRemux [1080p]
  • Советские мафии. Карты, деньги, кровь (2015.09.16) SATRip скачать через торрент бесплатно
  • Карты, деньги и слова / Три ямы, два гвоздя и ствол / Three Holes, Two Brads, and a Smoking Gun (2015) WEB-DLRip
  • Карты, деньги и два ствола / Lock, Stock and Two Smoking Barrels (1998) BDRip [H.264 / 1080p]
  • Карты, деньги и два ствола / Lock, Stock and Two Smoking Barrels (1998) HDRip [H.264] [MP4|1024x556]
  • Карты, деньги, два ствола / Lock, Stock and Two Smoking Barrels (1998) [H.265 / 1080p] [10-bit]

  • Посетители, находящиеся в группе Гости, не могут оставлять комментарии в данной новости.