Подписывайся на наш канал в Telegram https://t.me/torrentok и получи доступ к торрентам без ограничений!

Удивительная миссис Мэй (Закон о детях) / The Children Act (2017) BDRip [H.264 / 720p] торрент скачать бесплатно

Удивительная миссис Мэй (Закон о детях) / The Children Act (2017) BDRip [H.264 / 720p]Производство: Великобритания, США, Toledo Productions, BBC Films, FilmNation Entertainment
Жанр: драма
Режиссер: Ричард Эйр
Продюсер: Дункан Кенуорси, Глен Баснер, Бен Браунинг

Актеры
Эмма Томпсон, Стэнли Туччи, Джейсон Уоткинс, Финн Уайтхед, Бен Чаплин, Никки Амука-Бёрд, Руперт Ванситтарт, Рози Кавальеро, Энтони Калф, Николас Джонс

Описание

Судья Фиона Мэй, эксперт по проблемам детей, сталкивается с непростой дилеммой: Адам, которого от совершеннолетия отделяют всего три месяца жизни, по религиозным соображениям отказывается от переливания крови. Сможет ли Фиона заставить молодого человека жить против его воли? Как эта дилемма отзовется в ее судьбе?


Возраст: 18+ (зрителям, достигшим 18 лет. запрещено для детей)
Рейтинг MPAA: R (лицам до 17 лет обязательно присутствие взрослого)
Релиз от: Электричка
Продолжительность: 01: 45: 38
Качество видео: BDRip
Перевод: Многоголосый профессиональный (iTunes)
Субтитры: русские, французские, португальские
Видео: AVC/H.264, 1280x688, ~5899 kbps
Аудио 1: AC3, 6 ch, 384 kbps, русский
Аудио 2: DTS, 6 ch, 1509 kbps, английский
Общее
Уникальный идентификатор : 227545786712241748897963304001687977429 (0xAB2FB9748F8CB710A34D2B531136FDD5)
Полное имя : The.Children.Act.2017.720p.BluRay.ELEKTRI4KA.UNIONGANG.mkv
Формат : Matroska
Версия формата : Version 4
Размер файла : 5, 75 Гбайт
Продолжительность : 1 ч. 45 м.
Общий поток : 7787 Кбит/сек
Название фильма : .ELEKTRI4KA.UNIONGANG.
Дата кодирования : UTC 2020-08-25 14: 12: 22
Программа кодирования : mkvmerge v8.3.0 (\'Over the Horizon\') 64bit
Библиотека кодирования : libebml v1.3.1 + libmatroska v1.4.2
FileExtension_Invalid : mkv mk3d mka mks
Видео
Идентификатор : 1
Формат : AVC
Формат/Информация : Advanced Video Codec
Профиль формата : [email protected]
Настройки формата : CABAC/9 Ref Frames
Параметр CABAC формата : Да
Параметр RefFrames формата : 9 кадров
Идентификатор кодека : V_MPEG4/ISO/AVC
Продолжительность : 1 ч. 45 м.
Битрейт : 5899 Кбит/сек
Ширина : 1280 пикселей
Высота : 688 пикселей
Соотношение сторон : 1, 85: 1
Режим частоты кадров : Постоянный
Частота кадров : 23, 976 (24000/1001) кадра/сек
Цветовое пространство : YUV
Субдискретизация насыщенности : 4: 2: 0
Битовая глубина : 8 бит
Тип развёртки : Прогрессивная
Бит/(Пиксели*Кадры) : 0.279
Размер потока : 4, 23 Гбайт (74%)
Библиотека кодирования : x264 core 157 r2935 545de2f
Настройки программы : cabac=1/ref=9/deblock=1: -3: -3/analyse=0x3: 0x113/me=umh/subme=8/psy=1/psy_rd=1.00: 0.00/mixed_ref=1/me_range=16/chroma_me=1/trellis=2/8x8dct=1/cqm=0/deadzone=21, 11/fast_pskip=0/chroma_qp_offset=-2/threads=21/lookahead_threads=3/sliced_threads=0/nr=0/decimate=1/interlaced=0/bluray_compat=0/constrained_intra=0/bframes=3/b_pyramid=2/b_adapt=1/b_bias=0/direct=1/weightb=1/open_gop=0/weightp=2/keyint=250/keyint_min=23/scenecut=40/intra_refresh=0/rc_lookahead=40/rc=2pass/mbtree=1/bitrate=5899/ratetol=1.0/qcomp=0.60/qpmin=0/qpmax=69/qpstep=4/cplxblur=20.0/qblur=0.5/ip_ratio=1.40/aq=1: 1.00
Язык : English
Default : Да
Forced : Нет
Аудио #1
Идентификатор : 2
Формат : AC-3
Формат/Информация : Audio Coding 3
Коммерческое название : Dolby Digital
Идентификатор кодека : A_AC3
Продолжительность : 1 ч. 45 м.
Вид битрейта : Постоянный
Битрейт : 384 Кбит/сек
Каналы : 6 каналов
ChannelLayout : L R C LFE Ls Rs
Частота : 48, 0 КГц
Частота кадров : 31, 250 кадров/сек (1536 SPF)
Метод сжатия : С потерями
Размер потока : 290 Мбайт (5%)
Заголовок : iTunes
Язык : Russian
ServiceKind/String : Complete Main
Default : Да
Forced : Да
Аудио #2
Идентификатор : 3
Формат : DTS
Формат/Информация : Digital Theater Systems
Идентификатор кодека : A_DTS
Продолжительность : 1 ч. 45 м.
Вид битрейта : Постоянный
Битрейт : 1509 Кбит/сек
Каналы : 6 каналов
ChannelLayout : C L R Ls Rs LFE
Частота : 48, 0 КГц
Частота кадров : 93, 750 кадра/сек (512 SPF)
Битовая глубина : 24 бит
Метод сжатия : С потерями
Размер потока : 1, 11 Гбайт (19%)
Язык : English
Default : Нет
Forced : Нет
Текст #1
Идентификатор : 4
Формат : UTF-8
Идентификатор кодека : S_TEXT/UTF8
Идентификатор кодека/Информация : UTF-8 Plain Text
Заголовок : Full (Focs)
Язык : Russian
Default : Да
Forced : Да
Текст #2
Идентификатор : 5
Формат : UTF-8
Идентификатор кодека : S_TEXT/UTF8
Идентификатор кодека/Информация : UTF-8 Plain Text
Язык : French
Default : Нет
Forced : Нет
Текст #3
Идентификатор : 6
Формат : UTF-8
Идентификатор кодека : S_TEXT/UTF8
Идентификатор кодека/Информация : UTF-8 Plain Text
Заголовок : Brazilian
Язык : Portuguese
Default : Нет
Forced : Нет
Меню
00: 00: 00.000 : en: Chapter 1
00: 06: 36.313 : en: Chapter 2
00: 15: 54.078 : en: Chapter 3
00: 23: 00.296 : en: Chapter 4
00: 31: 30.180 : en: Chapter 5
00: 38: 11.498 : en: Chapter 6
00: 50: 23.729 : en: Chapter 7
00: 58: 40.726 : en: Chapter 8
01: 08: 58.468 : en: Chapter 9
01: 19: 23.300 : en: Chapter 10
01: 26: 37.025 : en: Chapter 11
01: 37: 40.688 : en: Chapter 12

Скриншоты для ознакомления


Все одноименные релизы в Клубе
Время раздачи: 24/7 мультитрекер (до появления первых 3-5 скачавших)

Другие торренты по теме:

  • Удивительная миссис Мейзел / The Marvelous Mrs. Maisel (2017) WEBRip (серии 1-8 из 8) Ozz
  • Удивительная миссис Мейзел / The Marvelous Mrs. Maisel (2018) WEBRip [H.264 / 1080p-LQ] (сезон 2, серии 1-7 из 10) Ozz (Обновляемая) [AD]
  • Удивительная миссис Мейзел / The Marvelous Mrs. Maisel (2018) WEBRip [H.264 / 1080p-LQ] (сезон 2, серии 1 из 10) TVShows (обновляемая)

  • Посетители, находящиеся в группе Гости, не могут оставлять комментарии в данной новости.