Подписывайся на наш канал в Telegram https://t.me/torrentok и получи доступ к торрентам без ограничений!

Прекрасная зеленая / La belle verte (1996) DVDRip [H.264] торрент скачать бесплатно

Прекрасная зеленая / La belle verte (1996) DVDRip [H.264]Производство: Франция/Les Films Alain Sarde, TF1 Films Production
Жанр: Комедия
Режиссер: Колин Серро

Актеры
Колин Серро, Венсан Линдон, Джеймс Тьерре, Самюэль Тасинаж, Марион Котийяр, Клер Кейм, Катрин Сами, Поль Кроше, Дидье Фламан, Мишель Лагюри

Описание

Порой, поднимая глаза на ночное небо, усыпанное далекими звездами, мы задумываемся, а есть ли на них жизнь? А какая она? А где лучше – там или тут? Главная героиня фильма Прекрасная зеленая, инопланетянка Мила, прилетела как раз оттуда и дала однозначные ответы на занимающие всех вопросы. Есть. Зеленая. Там. Но прилетела она отнюдь не хвастаться красотами своей планеты и счастливой жизнью ее обитателей. Она самоотверженно несет с собой великую миссию просвещения людей. Мила – посланница иных миров, миров, которые уже прошли те стадии развития, которые сейчас проходит земля, и жители которых решили предостеречь наивных младших братьев от совершения их же ошибок. Только мало кто готов выслушать Милу, в суете большого города лишь единицы смогут остановить свой сумасшедший бег и попробовать понять истинную красоту нетронутой человеком природы, проникнуться эмоциями животных или деревьев. Мила кажется им в лучшем случае блаженной, а в худшем – и вовсе психически нездоровой.


Продолжительность: 01: 29: 32
Качество видео: DVDRip
Перевод: Многоголосый любительский
Субтитры: отсутствуют
Видео: AVC/H.264, 720x312, ~1958 kbps
Аудио: AC3, 2 ch, 192 kbps | Русский MVO (Любительский)
Общее
Уникальный идентификатор : 237076707198272747372773591171409240089 (0xB25B501D8E520962BB1728CF7769E019)
Полное имя : N: ФАНТАСТИКА ФЕНТЕЗИПрекрасная зеленая. 1996Прекрасная зеленая. 1996.mkv
Формат : Matroska
Версия формата : Version 4/Version 2
Размер файла : 1, 35 Гбайт
Продолжительность : 1 ч. 29 м.
Общий поток : 2152 Кбит/сек
Название фильма : Release from Topmost
Дата кодирования : UTC 2020-08-23 13: 30: 46
Программа кодирования : mkvmerge v6.2.0 (\'Promised Land\') built on Apr 28 2013 12: 22: 01
Библиотека кодирования : libebml v1.3.0 + libmatroska v1.4.0
Attachment : Yes/Yes
Видео
Идентификатор : 1
Формат : AVC
Формат/Информация : Advanced Video Codec
Профиль формата : [email protected]
Параметр CABAC формата : Да
Параметр ReFrames формата : 12 кадров
Идентификатор кодека : V_MPEG4/ISO/AVC
Продолжительность : 1 ч. 29 м.
Битрейт : 1958 Кбит/сек
Ширина : 720 пикселей
Высота : 312 пикселей
Соотношение сторон : 2, 35: 1
Режим частоты кадров : Постоянный
Частота кадров : 25, 000 кадров/сек
Цветовое пространство : YUV
Субдискретизация насыщенности : 4: 2: 0
Битовая глубина : 8 бит
Тип развёртки : Прогрессивная
Бит/(Пиксели*Кадры) : 0.349
Размер потока : 1, 20 Гбайт (89%)
Заголовок : Прекрасная зеленая. 1996/Release from Topmost/
Библиотека кодирования : x264 core 146 r2538 121396c
Настройки программы : cabac=1/ref=12/deblock=1: -3: -3/analyse=0x3: 0x113/me=umh/subme=11/psy=1/psy_rd=1.00: 0.15/mixed_ref=1/me_range=32/chroma_me=1/trellis=2/8x8dct=1/cqm=0/deadzone=21, 11/fast_pskip=0/chroma_qp_offset=-3/threads=12/lookahead_threads=2/sliced_threads=0/nr=0/decimate=0/interlaced=0/bluray_compat=0/constrained_intra=0/bframes=8/b_pyramid=2/b_adapt=2/b_bias=0/direct=1/weightb=1/open_gop=0/weightp=2/keyint=240/keyint_min=23/scenecut=40/intra_refresh=0/rc_lookahead=40/rc=2pass/mbtree=0/bitrate=1958/ratetol=1.0/qcomp=0.60/qpmin=0/qpmax=69/qpstep=4/cplxblur=20.0/qblur=0.5/vbv_maxrate=14000/vbv_bufsize=14000/nal_hrd=none/filler=0/ip_ratio=1.40/pb_ratio=1.30/aq=1: 0.90
Язык : French
Default : Да
Forced : Нет
Аудио
Идентификатор : 2
Формат : AC-3
Формат/Информация : Audio Coding 3
Расширение режима : CM (complete main)
Параметр Endianness формата : Big
Идентификатор кодека : A_AC3
Продолжительность : 1 ч. 29 м.
Вид битрейта : Постоянный
Битрейт : 192 Кбит/сек
Каналы : 2 канала
Расположение каналов : Front: L R
Частота : 48, 0 КГц
Битовая глубина : 16 бит
Метод сжатия : С потерями
Размер потока : 123 Мбайт (9%)
Язык : Russian
Default : Да
Forced : Нет

Другие торренты по теме:

  • Bishoujo Senshi Sailor Moon Crystal / Прекрасная воительница Сейлор Мун: Кристалл [2014, TV, 5 из 12] WebRip 720p raw
  • Bishoujo Senshi Sera Mun Kurisutaru / Pretty Guardian Sailor Moon Crystal / Прекрасная воительница Сейлор Мун Кристалл ТВ [2014, 1-2 из 12] BDRip 1080p Hi10p Raw скачать через торрент бесплатно
  • Bishoujo Senshi Sera Mun Kurisutaru / Pretty Guardian Sailor Moon Crystal / Прекрасная воительница Сейлор Мун Кристалл ТВ [2014, 1-2 из 12] BDRip 1080p Hi10p Raw скачать через торрент бесплатно
  • Журнал | Моя прекрасная дача. Спецвыпуск №23 / C. Календарь садовода 2015 (2014) [PDF] скачать через торрент бесплатно
  • Прекрасная молодость / Hermosa juventud (2014) WEB-DL [720p] ATV
  • Прекрасная молодость / Hermosa juventud (2014) WEB-DL [1080p] ATV скачать через торрент бесплатно
  • Василиса Прекрасная (1939) DVDRip [H.264] [hand made colored]
  • София Прекрасная: Как стать принцессой / Sofia the First (2014) WEB-DLRip [H.264 / 720p-LQ] (2 сезон, 1-6 серии из 24) [Обновляемая] скачать через торрент бесплатно

  • Посетители, находящиеся в группе Гости, не могут оставлять комментарии в данной новости.