Подписывайся на наш канал в Telegram https://t.me/torrentok и получи доступ к торрентам без ограничений!

Мёртв на 99% (2017) WEB-DL [H.264 / 1080p-LQ] (сезон 1, серии 1-10 из 10) торрент скачать бесплатно

Мёртв на 99% (2017) WEB-DL [H.264 / 1080p-LQ] (сезон 1, серии 1-10 из 10)Производство: Россия/Киностудия КИТ совместно с IKa film по заказу НТВ
Жанр: боевик, детектив
Режиссер: Степан Коршунов

Актеры
Алексей Чадов, Анна Старшенбаум, Олег Тактаров, Константин Адаев, Олег Мазуров, Борис Хвошнянский, Александр Наумов, Анна Попова, Максим Митяшин, Евгения Храповицкая и др.

Описание

Артём умеет красиво зарабатывать деньги и легко с ними расставаться. Его жизнь напоминает сказку: дорогие спорткары, роскошные лофты, элитные рестораны и девушка-модель... Идиллия заканчивается, когда Артёма принимают за опасного преступника по кличке Змей. За Змеем охотятся и Интерпол, и агент ФСБ Хромов, и обманутые им торговцы оружием из Албании. У полковника Хромова есть сомнения, кто же на самом деле этот Змей? Может преступник присвоил внешность Артова и занял его место успешного архитектора? Чтобы вернуть себе имя и отстоять право на жизнь, Артёму предстоит выживать в огромном городе без денег, машины и документов.

Возраст: 16+ (зрителям, достигшим 16 лет)
Продолжительность: ~00: 48: 00 серия
Качество видео: WEB-DL
Видео: AVC/H.264, 1920x816 (2.35: 1), ~4000 Kbps
Аудио: AC3, 2 ch, 192 Kbps
General
Unique ID : 250957563838055178496465269389021460885 (0xBCCCAB2FB39A078AA3D57A4E357CB995)
Complete name : D: сериалы сидMertv.na.99%.2016.WEB-DL.(1080p).NikolspupMertv.na.99%.(01.seriya.iz.10).2016.WEB-DL.(1080p).Nikolspup.mkv
Format : Matroska
Format version : Version 4/Version 2
File size : 1.41 GiB
Duration : 48 min 8 s
Overall bit rate mode : Variable
Overall bit rate : 4 188 kb/s
Encoded date : UTC 2018-07-15 08: 31: 27
Writing application : mkvmerge v7.8.0 (\'River Man\') 32bit built on Mar 27 2015 16: 18: 02
Writing library : libebml v1.3.1 + libmatroska v1.4.2
Video
ID : 1
Format : AVC
Format/Info : Advanced Video Codec
Format profile : [email protected]
Format settings : CABAC/3 Ref Frames
Format settings, CABAC : Yes
Format settings, ReFrames : 3 frames
Codec ID : V_MPEG4/ISO/AVC
Duration : 48 min 8 s
Bit rate mode : Variable
Bit rate : 3 994 kb/s
Maximum bit rate : 40.0 Mb/s
Width : 1 920 pixels
Height : 816 pixels
Display aspect ratio : 2.35: 1
Frame rate mode : Constant
Frame rate : 25.000 FPS
Color space : YUV
Chroma subsampling : 4: 2: 0
Bit depth : 8 bits
Scan type : Progressive
Bits/(Pixel*Frame) : 0.102
Stream size : 1.34 GiB (95%)
Default : Yes
Forced : No
Audio
ID : 2
Format : AC-3
Format/Info : Audio Coding 3
Codec ID : A_AC3
Duration : 48 min 8 s
Bit rate mode : Constant
Bit rate : 192 kb/s
Channel(s) : 2 channels
Channel positions : Front: L R
Sampling rate : 48.0 kHz
Frame rate : 31.250 FPS (1536 SPF)
Bit depth : 16 bits
Compression mode : Lossy
Stream size : 66.1 MiB (5%)
Language : Russian
Service kind : Complete Main
Default : Yes
Forced : No

Скриншоты для ознакомления



Все одноименные релизы в Клубе
Время раздачи: 24/7 (мультитрекерная раздача)

Другие торренты по теме:

  • Джейми Маркс мёртв / Jamie Marks Is Dead (2014) WEB-DLRip [H.264] [VO]
  • Бен Ладен: жив или мёртв / Tere Bin Laden Dead or Alive (2016) HDTVRip [H.264 / 1080i-LQ]
  • Мёртв на 99% (2017) HDTVRip (серии 1-2 из 10) (обновляемая)
  • Мёртв на 99% (2017) HDTVRip [H.264 / 1080p-LQ] (серии 1-6 из 10) (обновляемая)
  • Мёртв на 99% (2017) HDTVRip [H.264 / 720p-LQ] (сезон 1, серии 1-6 из 10) (обновляемая)
  • Мёртв на 99% (2017) HDTVRip [H.264] (сезон 1, серии 1-6 из 10) (обновляемая)
  • Мёртв на 99% (2017) HDTV [H.264 / 1080i-LQ] (сезон 1, серии 1-6 из 10) (обновляемая)
  • Мёртв для меня / Dead to Me (2019) WEB-DLRip [H.264 / 1080p-LQ] (сезон 1, серии 1-10 из 10) Пифагор

  • Посетители, находящиеся в группе Гости, не могут оставлять комментарии в данной новости.