Подписывайся на наш канал в Telegram https://t.me/torrentok и получи доступ к торрентам без ограничений!

Хэппи-энд (2020) WEB-DLRip торрент скачать бесплатно

Хэппи-энд (2020) WEB-DLRipПроизводство: Россия, Таиланд/Вита Актива, 2Д Целлулоид
Жанр: Комедия
Режиссер: Евгений Шелякин

Актеры
Михаил Гомиашвили, Евгения Дмитриева, Владимир Мишуков, Чарай Муэнпрайун, Роза Хайруллина, Евгений Сангаджиев, Алина Астровская, Полина Пушкарук, Анастасия Сомова, Патрида Пьекеу

Описание

Загадочный мужчина приходит в себя на пляже в Таиланде. Он не помнит ни своего имени, ни причины, по которой оказался так далеко от дома. Говорит он только по-русски и отличается крайне скверным характером, однако быстро осваивается на новом месте, налаживает связи и даже организует авантюрный бизнес. И вроде все в его жизни снова благополучно, но один вопрос остается неотвеченным: для чего же он все-таки прилетел на другой конец света?

Возраст: 12+ (зрителям, достигшим 12 лет)
Дата российской премьеры: 1 августа 2020 , СППР
Продолжительность: 01: 40: 21
Качество видео: WEB-DLRip
Перевод: Не требуется (русский) iTunes
Субтитры: Отсутствуют
Видео: Xvid, 720x304, ~1695 Kbps
Аудио: AC3, 6 ch, 384 Kbps
Общее
Полное имя : G: Хэппи-энд.2020.WEB-DLRip.1.46Gb.MegaPeer.avi
Формат : AVI
Формат/Информация : Audio Video Interleave
Размер файла : 1, 46 Гбайт
Продолжительность : 1 ч. 40 м.
Общий поток : 2 087 Кбит/сек
Программа кодирования : VirtualDubMod 1.5.10.3 |www.virtualdub-fr.org|| (build 2550/release)
Библиотека кодирования : VirtualDubMod build 2550/release
Видео
Идентификатор : 0
Формат : MPEG-4 Visual
Профиль формата : Advanced [email protected]
Настройки формата : BVOP1/Custom Matrix
Параметр BVOP формата : 1
Параметр QPel формата : Нет
Параметр GMC формата : Без точки перехода
Параметр матрицы формата : Выборочная
Идентификатор кодека : XVID
Идентификатор кодека/Подсказка : XviD
Продолжительность : 1 ч. 40 м.
Битрейт : 1 694 Кбит/сек
Ширина : 720 пикселей
Высота : 304 пикселя
Соотношение сторон : 2, 35: 1
Частота кадров : 24, 000 кадра/сек
Цветовое пространство : YUV
Субдискретизация насыщенности : 4: 2: 0
Битовая глубина : 8 бит
Тип развёртки : Прогрессивная
Метод сжатия : С потерями
Бит/(Пиксели*Кадры) : 0.322
Размер потока : 1, 19 Гбайт (81%)
Библиотека кодирования : XviD 69
Аудио
Идентификатор : 1
Формат : AC-3
Формат/Информация : Audio Coding 3
Коммерческое название : Dolby Digital
Идентификатор кодека : 2000
Продолжительность : 1 ч. 40 м.
Вид битрейта : Постоянный
Битрейт : 384 Кбит/сек
Каналы : 6 каналов
Channel layout : L R C LFE Ls Rs
Частота : 48, 0 КГц
Частота кадров : 31, 250 кадров/сек (1536 SPF)
Метод сжатия : С потерями
Размер потока : 276 Мбайт (18%)
Выравнивание : Разделение по промежуткам
Продолжительность промежутка : 42 мс. (1, 00 видеокадр)
Время предзагрузки промежутка : 500 мс.
Service kind : Complete Main

Скриншоты для ознакомления



Все одноименные релизы в Клубе
Время раздачи: 24/7 (круглосуточно) (до появления первых 3-5 скачавших)

Другие торренты по теме:

  • Хэппи-энд (2020) WEB-DL [H.264 / 1080p-LQ]
  • Хэппи-энд / Happy End (2017) WEBRip [MVO] [AD]
  • Хэппи-энд / Happy End (2017) BDRip [H.264 / 720p]

  • Посетители, находящиеся в группе Гости, не могут оставлять комментарии в данной новости.