Подписывайся на наш канал в Telegram https://t.me/torrentok и получи доступ к торрентам без ограничений!

Падение Олимпа / Olympus Has Fallen (2013) BDRip [H.264 / 1080p] [PR] торрент скачать бесплатно

Падение Олимпа / Olympus Has Fallen (2013) BDRip [H.264 / 1080p] [PR]Производство: США/Millennium Films
Жанр: боевик, триллер
Режиссер: Антуан Фукуа

Актеры
Джерард Батлер, Аарон Экхарт, Морган Фримен, Рик Юн, Финли Якобсен, Анджела Бассетт, Рада Митчелл, Роберт Форстер, Дилан МакДермотт, Эшли Джадд

Описание

Когда на Белый Дом нападают террористы, а президента берут в заложники, дискредитированный бывший охранник главы государства Майк Бэннинг оказывается внутри захваченного здания. И теперь он единственный, кто сможет спасти президента…


Возраст: 16+ (зрителям, достигшим 16 лет)
Рейтинг MPAA: R (лицам до 17 лет обязательно присутствие взрослого)
Продолжительность: 01: 59: 09
Качество видео: BDRip
Перевод: Дублированный, авторский
Субтитры: русские, английские
Видео: AVC/H.264, 1920x800, ~15.9 mbps
Аудио 1: DTS, 6 ch, 1509 kbps, Русский (DUB BD)
Аудио 2: DTS, 6 ch, 1509 kbps, Русский (AVO А.Гаврилов)
Аудио 3: DTS, 6 ch, 1509 kbps, Русский (AVO Л.Володарский)
Аудио 4: DTS, 6 ch, 1509 kbps, Английский
Общее
Уникальный идентификатор : 230010143765983410340829376727982451980 (0xAD0A57A38A3C1DFDA0E8F652846EAD0C)
Полное имя : F: Olympus.Has.Fallen.2013.1080p.BluRay.mkv
Формат : Matroska
Версия формата : Version 4
Размер файла : 18, 3 Гбайт
Продолжительность : 1 ч. 59 м.
Общий поток : 21, 9 Мбит/сек
Название фильма : Olympus Has Fallen (2013)
Дата кодирования : UTC 2020-08-26 02: 58: 18
Программа кодирования : mkvmerge v8.2.0 (\'World of Adventure\') 64bit
Библиотека кодирования : libebml v1.3.1 + libmatroska v1.4.2
Видео
Идентификатор : 1
Формат : AVC
Формат/Информация : Advanced Video Codec
Профиль формата : [email protected]
Настройки формата : CABAC/5 Ref Frames
Параметр CABAC формата : Да
Параметр RefFrames формата : 5 кадров
Идентификатор кодека : V_MPEG4/ISO/AVC
Продолжительность : 1 ч. 59 м.
Битрейт : 15, 9 Мбит/сек
Ширина : 1 920 пикселей
Высота : 800 пикселей
Соотношение сторон : 2, 40: 1
Режим частоты кадров : Постоянный
Частота кадров : 23, 976 кадра/сек
Цветовое пространство : YUV
Субдискретизация насыщенности : 4: 2: 0
Битовая глубина : 8 бит
Тип развёртки : Прогрессивная
Бит/(Пиксели*Кадры) : 0.431
Размер потока : 13, 3 Гбайт (72%)
Заголовок : Olympus Has Fallen
Библиотека кодирования : x264 core 135 r2345 f0c1c53
Настройки программы : cabac=1/ref=5/deblock=1: -3: -3/analyse=0x3: 0x113/me=tesa/subme=10/psy=1/psy_rd=1.00: 0.00/mixed_ref=1/me_range=16/chroma_me=1/trellis=2/8x8dct=1/cqm=0/deadzone=21, 11/fast_pskip=0/chroma_qp_offset=-2/threads=12/lookahead_threads=2/sliced_threads=0/nr=0/decimate=0/interlaced=0/bluray_compat=0/constrained_intra=0/bframes=8/b_pyramid=2/b_adapt=2/b_bias=0/direct=3/weightb=1/open_gop=0/weightp=2/keyint=250/keyint_min=23/scenecut=40/intra_refresh=0/rc=crf/mbtree=0/crf=17.3/qcomp=0.70/qpmin=0/qpmax=69/qpstep=4/ip_ratio=1.30/pb_ratio=1.30/aq=1: 0.80
Язык : English
Default : Да
Forced : Нет
Аудио #1
Идентификатор : 2
Формат : DTS
Формат/Информация : Digital Theater Systems
Идентификатор кодека : A_DTS
Продолжительность : 1 ч. 59 м.
Вид битрейта : Постоянный
Битрейт : 1 509 Кбит/сек
Каналы : 6 каналов
Channel layout : C L R Ls Rs LFE
Частота : 48, 0 КГц
Частота кадров : 93, 750 кадра/сек (512 SPF)
Битовая глубина : 16 бит
Метод сжатия : С потерями
Размер потока : 1, 26 Гбайт (7%)
Заголовок : DUB Blu-Ray
Язык : Russian
Default : Да
Forced : Нет
Аудио #2
Идентификатор : 3
Формат : DTS
Формат/Информация : Digital Theater Systems
Идентификатор кодека : A_DTS
Продолжительность : 1 ч. 59 м.
Вид битрейта : Постоянный
Битрейт : 1 509 Кбит/сек
Каналы : 6 каналов
Channel layout : C L R Ls Rs LFE
Частота : 48, 0 КГц
Частота кадров : 93, 750 кадра/сек (512 SPF)
Битовая глубина : 24 бит
Метод сжатия : С потерями
Размер потока : 1, 26 Гбайт (7%)
Заголовок : AVO А.Гаврилов
Язык : Russian
Default : Нет
Forced : Нет
Аудио #3
Идентификатор : 4
Формат : DTS
Формат/Информация : Digital Theater Systems
Идентификатор кодека : A_DTS
Продолжительность : 1 ч. 59 м.
Вид битрейта : Постоянный
Битрейт : 1 509 Кбит/сек
Каналы : 6 каналов
Channel layout : C L R Ls Rs LFE
Частота : 48, 0 КГц
Частота кадров : 93, 750 кадра/сек (512 SPF)
Битовая глубина : 24 бит
Метод сжатия : С потерями
Размер потока : 1, 26 Гбайт (7%)
Заголовок : AVO Л.Володарский
Язык : Russian
Default : Нет
Forced : Нет
Аудио #4
Идентификатор : 5
Формат : DTS
Формат/Информация : Digital Theater Systems
Идентификатор кодека : A_DTS
Продолжительность : 1 ч. 59 м.
Вид битрейта : Постоянный
Битрейт : 1 509 Кбит/сек
Каналы : 6 каналов
Channel layout : C L R Ls Rs LFE
Частота : 48, 0 КГц
Частота кадров : 93, 750 кадра/сек (512 SPF)
Битовая глубина : 24 бит
Метод сжатия : С потерями
Размер потока : 1, 26 Гбайт (7%)
Заголовок : Original
Язык : English
Default : Нет
Forced : Нет
Текст #1
Идентификатор : 6
Формат : UTF-8
Идентификатор кодека : S_TEXT/UTF8
Идентификатор кодека/Информация : UTF-8 Plain Text
Продолжительность : 1 ч. 49 м.
Битрейт : 84 бит/сек
Count of elements : 1328
Размер потока : 67, 5 Кбайт (0%)
Язык : Russian
Default : Нет
Forced : Нет
Текст #2
Идентификатор : 7
Формат : UTF-8
Идентификатор кодека : S_TEXT/UTF8
Идентификатор кодека/Информация : UTF-8 Plain Text
Продолжительность : 1 ч. 6 м.
Битрейт : 1 бит/сек
Count of elements : 29
Размер потока : 673 байт (0%)
Заголовок : Forced
Язык : English
Default : Нет
Forced : Нет
Текст #3
Идентификатор : 8
Формат : UTF-8
Идентификатор кодека : S_TEXT/UTF8
Идентификатор кодека/Информация : UTF-8 Plain Text
Продолжительность : 1 ч. 48 м.
Битрейт : 50 бит/сек
Count of elements : 1163
Размер потока : 40, 6 Кбайт (0%)
Язык : English
Default : Нет
Forced : Нет
Меню
00: 00: 00.000 : en: 00: 00: 00.000
00: 09: 36.034 : en: 00: 09: 36.034
00: 14: 49.806 : en: 00: 14: 49.806
00: 21: 41.258 : en: 00: 21: 41.258
00: 28: 13.567 : en: 00: 28: 13.567
00: 33: 38.850 : en: 00: 33: 38.850
00: 41: 56.639 : en: 00: 41: 56.639
00: 51: 06.563 : en: 00: 51: 06.563
00: 58: 52.320 : en: 00: 58: 52.320
01: 07: 20.245 : en: 01: 07: 20.245
01: 15: 17.555 : en: 01: 15: 17.555
01: 20: 13.142 : en: 01: 20: 13.142
01: 27: 11.435 : en: 01: 27: 11.435
01: 34: 38.715 : en: 01: 34: 38.715
01: 42: 19.175 : en: 01: 42: 19.175
01: 47: 23.187 : en: 01: 47: 23.187

Скриншоты для ознакомления



Все одноименные релизы в Клубе
Время раздачи: c 5 до 19 мск (до появления первых 3-5 скачавших)

Другие торренты по теме:

  • Падение Олимпа / Olympus Has Fallen (2013) BDRip [H.264 / 1080p] [handmade 16:9]
  • Падение Олимпа / Olympus Has Fallen (2013) BDRip [H.264 / 720p]

  • Посетители, находящиеся в группе Гости, не могут оставлять комментарии в данной новости.