Подписывайся на наш канал в Telegram https://t.me/torrentok и получи доступ к торрентам без ограничений!

Падение Олимпа / Olympus Has Fallen (2013) BDRip [H.264 / 720p] торрент скачать бесплатно

Падение Олимпа / Olympus Has Fallen (2013) BDRip [H.264 / 720p]Производство: США/Millennium Films
Жанр: боевик, триллер
Режиссер: Антуан Фукуа

Актеры
Джерард Батлер, Аарон Экхарт, Морган Фримен, Рик Юн, Финли Якобсен, Анджела Бассетт, Рада Митчелл, Роберт Форстер, Дилан МакДермотт, Эшли Джадд

Описание

Когда на Белый Дом нападают террористы, а президента берут в заложники, дискредитированный бывший охранник главы государства Майк Бэннинг оказывается внутри захваченного здания. И теперь он единственный, кто сможет спасти президента…


Возраст: 16+ (зрителям, достигшим 16 лет)
Рейтинг MPAA: R (лицам до 17 лет обязательно присутствие взрослого)
Продолжительность: 01: 59: 09
Качество видео: BDRip
Перевод: Дублированный, авторский
Субтитры: русские, английские
Видео: AVC/H.264, 1280x538, ~6311 kbps
Аудио 1: AC3, 6 ch, 640 kbps, Русский (DUB BD)
Аудио 2: AC3, 6 ch, 448 kbps, Русский (AVO А.Гаврилов)
Аудио 3: AC3, 6 ch, 640 kbps, Английский
Общее
Уникальный идентификатор : 220171342542596507052231363620518747931 (0xA5A375494F5F75DD92852DE81A27DF1B)
Полное имя : F: CINEMAOlympus.Has.Fallen.2013.BDRip.720p.mkv
Формат : Matroska
Версия формата : Version 4
Размер файла : 6, 69 Гбайт
Продолжительность : 1 ч. 59 м.
Общий поток : 8 042 Кбит/сек
Название фильма : Olympus Has Fallen (2013)
Дата кодирования : UTC 2020-08-17 15: 54: 40
Программа кодирования : mkvmerge v8.2.0 (\'World of Adventure\') 64bit
Библиотека кодирования : libebml v1.3.1 + libmatroska v1.4.2
Видео
Идентификатор : 1
Формат : AVC
Формат/Информация : Advanced Video Codec
Профиль формата : [email protected]
Настройки формата : CABAC/12 Ref Frames
Параметр CABAC формата : Да
Параметр RefFrames формата : 12 кадров
Идентификатор кодека : V_MPEG4/ISO/AVC
Продолжительность : 1 ч. 59 м.
Битрейт : 6 311 Кбит/сек
Ширина : 1 280 пикселей
Высота : 538 пикселей
Соотношение сторон : 2, 40: 1
Режим частоты кадров : Постоянный
Частота кадров : 24, 000 кадра/сек
Цветовое пространство : YUV
Субдискретизация насыщенности : 4: 2: 0
Битовая глубина : 8 бит
Тип развёртки : Прогрессивная
Бит/(Пиксели*Кадры) : 0.382
Размер потока : 5, 25 Гбайт (78%)
Заголовок : Olympus Has Fallen
Библиотека кодирования : x264 core 138 r2358kMod 9e941d1
Настройки программы : cabac=1/ref=12/deblock=1: -3: -3/analyse=0x3: 0x133/me=umh/subme=11/psy=1/fade_compensate=0.00/psy_rd=1.05: 0.00/mixed_ref=1/me_range=48/chroma_me=1/trellis=2/8x8dct=1/cqm=0/deadzone=21, 11/fast_pskip=1/chroma_qp_offset=-2/threads=12/lookahead_threads=2/sliced_threads=0/nr=0/decimate=1/interlaced=0/bluray_compat=0/constrained_intra=0/bframes=11/b_pyramid=2/b_adapt=2/b_bias=0/direct=1/weightb=1/open_gop=0/weightp=2/keyint=250/keyint_min=23/scenecut=40/intra_refresh=0/rc_lookahead=60/rc=crf/mbtree=0/crf=17.5000/qcomp=0.70/qpmin=0/qpmax=69/qpstep=4/vbv_maxrate=50000/vbv_bufsize=62500/crf_max=0.0/nal_hrd=none/ip_ratio=1.20/pb_ratio=1.20/aq=3: 0.85
Язык : English
Default : Да
Forced : Нет
Цветовой диапазон : Limited
Коэффициенты матрицы : BT.709
Аудио #1
Идентификатор : 2
Формат : AC-3
Формат/Информация : Audio Coding 3
Коммерческое название : Dolby Digital
Идентификатор кодека : A_AC3
Продолжительность : 1 ч. 59 м.
Вид битрейта : Постоянный
Битрейт : 640 Кбит/сек
Каналы : 6 каналов
Channel layout : L R C LFE Ls Rs
Частота : 48, 0 КГц
Частота кадров : 31, 250 кадров/сек (1536 SPF)
Метод сжатия : С потерями
Размер потока : 545 Мбайт (8%)
Заголовок : DUB BD
Язык : Russian
Service kind : Complete Main
Default : Да
Forced : Нет
Аудио #2
Идентификатор : 3
Формат : AC-3
Формат/Информация : Audio Coding 3
Коммерческое название : Dolby Digital
Идентификатор кодека : A_AC3
Продолжительность : 1 ч. 59 м.
Вид битрейта : Постоянный
Битрейт : 448 Кбит/сек
Каналы : 6 каналов
Channel layout : L R C LFE Ls Rs
Частота : 48, 0 КГц
Частота кадров : 31, 250 кадров/сек (1536 SPF)
Метод сжатия : С потерями
Размер потока : 382 Мбайт (6%)
Заголовок : AVO А.Гаврилов
Язык : Russian
Service kind : Complete Main
Default : Нет
Forced : Нет
Аудио #3
Идентификатор : 4
Формат : AC-3
Формат/Информация : Audio Coding 3
Коммерческое название : Dolby Digital
Идентификатор кодека : A_AC3
Продолжительность : 1 ч. 59 м.
Вид битрейта : Постоянный
Битрейт : 640 Кбит/сек
Каналы : 6 каналов
Channel layout : L R C LFE Ls Rs
Частота : 48, 0 КГц
Частота кадров : 31, 250 кадров/сек (1536 SPF)
Метод сжатия : С потерями
Размер потока : 545 Мбайт (8%)
Заголовок : Original
Язык : English
Service kind : Complete Main
Default : Нет
Forced : Нет
Текст #1
Идентификатор : 5
Формат : UTF-8
Идентификатор кодека : S_TEXT/UTF8
Идентификатор кодека/Информация : UTF-8 Plain Text
Продолжительность : 1 ч. 49 м.
Битрейт : 84 бит/сек
Count of elements : 1331
Размер потока : 68, 0 Кбайт (0%)
Язык : Russian
Default : Нет
Forced : Нет
Текст #2
Идентификатор : 6
Формат : UTF-8
Идентификатор кодека : S_TEXT/UTF8
Идентификатор кодека/Информация : UTF-8 Plain Text
Продолжительность : 1 ч. 48 м.
Битрейт : 47 бит/сек
Count of elements : 1243
Размер потока : 38, 1 Кбайт (0%)
Язык : English
Default : Нет
Forced : Нет
Меню
00: 00: 00.000 : en: en: Chapter 01
00: 09: 19.541 : en: en: Chapter 02
00: 17: 49.750 : en: en: Chapter 03
00: 27: 52.416 : en: en: Chapter 04
00: 38: 11.708 : en: en: Chapter 05
00: 46: 51.833 : en: en: Chapter 06
00: 57: 37.000 : en: en: Chapter 07
01: 07: 31.708 : en: en: Chapter 08
01: 19: 48.875 : en: en: Chapter 09
01: 28: 46.208 : en: en: Chapter 10
01: 38: 14.125 : en: en: Chapter 11
01: 50: 14.625 : en: en: Chapter 12

Скриншоты для ознакомления



Все одноименные релизы в Клубе
Время раздачи: c 5 до 19 мск (до появления первых 3-5 скачавших)

Другие торренты по теме:

  • Падение Олимпа / Olympus Has Fallen (2013) BDRip [H.264 / 1080p] [PR]
  • Падение Олимпа / Olympus Has Fallen (2013) BDRip [H.264 / 1080p] [handmade 16:9]

  • Посетители, находящиеся в группе Гости, не могут оставлять комментарии в данной новости.