Подписывайся на наш канал в Telegram https://t.me/torrentok и получи доступ к торрентам без ограничений!

Бархатные ручки / Mani di velluto (1979) BDRip [H.265 / 1080p] [10-bit] торрент скачать бесплатно

Бархатные ручки / Mani di velluto (1979) BDRip [H.265 / 1080p] [10-bit]Производство: Италия/Capital Films
Жанр: Мелодрама, комедия, криминал
Режиссер: Франко Кастеллано, Джузеппе Моччиа

Актеры
Адриано Челентано, Элеонора Джорджи, Джон Шарп, Ольга Карлатос, Джино Сантерколе, Ания Пьерони, Джанкарло Тондинелли, Пиппо Сантонастасо, Джанни Дзулло, Джефри Коплстон

Описание
Инженер Гвидо Квиллер разбогател на продаже бронированных стёкол для ювелирных магазинов, но тем самым разозлил страховые компании и грабителей. Во время погони за возлюбленной, которой он хотел вернуть забытую сумочку, у мопеда отказывают тормоза и он падает в фонтан. В это время едущая за ним на машине семья воров принимает Квиллера с сумкой в руках за дилетанта, укравшего сумочку.


Возраст: 12+ (зрителям, достигшим 12 лет)
Рейтинг MPAA: этот продукт не был классифицирован
Релиз от: Мичман (HEVC-CLUB)
Продолжительность: 01: 40: 45
Качество видео: BDRip
Перевод: Многоголосый профессиональный, двухголосый, любительский одноголосый
Субтитры: Русские, итальянские
Видео: HEVC/H.265, 1920x1036, ~10, 2 Мbps
Аудио 1: AC3, 2 ch, 192 Kbps - Русский, MVO (студия Нота по заказу РТР)
Аудио 2: AC3, 2 ch, 224 Kbps - Русский, DVO
Аудио 3: AC3, 2 ch, 192 Kbps - Русский, VO
Аудио 4: AC3, 2 ch, 256 Kbps - Итальянский
==============================
x265 info: Avg QP: 17.97 kb/s
x265 info: Avg QP: 19.28 kb/s
x265 info: Avg QP: 21.10 kb/s
==============================
Общее
Уникальный идентификатор : 209980469796631665194725315766601329038 (0x9DF8C477B8564EAD776EC99568AB298E)
Полное имя : R: Mani di velluto (1979) BDRip-HEVC 1080p.mkv
Формат : Matroska
Версия формата : Version 4/Version 2
Размер файла : 7, 77 Гбайт
Продолжительность : 1 ч. 40 м.
Общий поток : 11, 0 Мбит/сек
Название фильма : Mani di velluto (1979)
Дата кодирования : UTC 2020-08-24 03: 43: 01
Программа кодирования : mkvmerge v49.0.0 (\'Sick Of Losing Soulmates\') 64-bit
Библиотека кодирования : libebml v1.4.0 + libmatroska v1.6.1
Обложка : Yes
Attachments : cover
Видео
Идентификатор : 1
Формат : HEVC
Формат/Информация : High Efficiency Video Coding
Профиль формата : [email protected]@High
Идентификатор кодека : V_MPEGH/ISO/HEVC
Продолжительность : 1 ч. 40 м.
Битрейт : 10, 2 Мбит/сек
Ширина : 1920 пикселей
Высота : 1036 пикселей
Соотношение сторон : 1, 85: 1
Режим частоты кадров : Постоянный
Частота кадров : 23, 976 (24000/1001) кадра/сек
Цветовое пространство : YUV
Субдискретизация насыщенности : 4: 2: 0
Битовая глубина : 10 бит
Бит/(Пиксели*Кадры) : 0.213
Размер потока : 7, 16 Гбайт (92%)
Библиотека кодирования : x265 3.3+1-g554c887ac: WindowsMSVC 192464 bit 10bit
Настройки программы : cpuid=1111039/frame-threads=3/numa-pools=12/wpp/no-pmode/no-pme/no-psnr/no-ssim/log-level=2/input-csp=1/input-res=1920x1036/interlace=0/total-frames=144971/level-idc=41/high-tier=1/uhd-bd=0/ref=5/no-allow-non-conformance/no-repeat-t_heads/annexb/no-aud/no-hrd/info/hash=0/no-temporal-layers/open-gop/min-keyint=23/keyint=240/gop-lookahead=0/bframes=10/b-adapt=2/b-pyramid/bframe-bias=0/rc-lookahead=60/lookahead-slices=4/scenecut=40/hist-scenecut=0/radl=0/no-splice/no-intra-refresh/ctu=32/min-cu-size=8/rect/amp/max-tu-size=32/tu-inter-depth=4/tu-intra-depth=4/limit-tu=1/rdoq-level=2/dynamic-rd=0.00/no-ssim-rd/signhide/no-tskip/nr-intra=0/nr-inter=0/no-constrained-intra/no-strong-intra-smoothing/max-merge=4/limit-refs=2/limit-modes/me=3/subme=7/merange=57/temporal-mvp/no-frame-dup/no-hme/weightp/weightb/no-analyze-src-pics/deblock=-3: -3/no-sao/no-sao-non-deblock/rd=6/selective-sao=0/no-early-skip/rskip/no-fast-intra/no-tskip-fast/no-cu-lossless/no-b-intra/no-splitrd-skip/rdpenalty=0/psy-rd=2.00/psy-rdoq=1.00/no-rd-refine/no-lossless/cbqpoffs=0/crqpoffs=0/rc=crf/crf=20.0/qcomp=0.65/qpstep=4/stats-write=0/stats-read=0/vbv-maxrate=50000/vbv-bufsize=50000/vbv-init=0.9/crf-max=0.0/crf-min=0.0/ipratio=1.40/pbratio=1.30/aq-mode=1/aq-strength=1.00/no-cutree/zone-count=0/no-strict-cbr/qg-size=32/no-rc-grain/qpmax=69/qpmin=0/no-const-vbv/sar=1/overscan=0/videoformat=5/range=0/colorprim=1/transfer=1/colormatrix=1/chromaloc=0/display-window=0/cll=0, 0/min-luma=0/max-luma=1023/log2-max-poc-lsb=8/vui-timing-info/vui-hrd-info/slices=1/no-opt-qp-pps/no-opt-ref-list-length-pps/no-multi-pass-opt-rps/scenecut-bias=0.05/hist-threshold=0.01/no-opt-cu-delta-qp/no-aq-motion/no-hdr10/no-hdr10-opt/no-dhdr10-opt/no-idr-recovery-sei/analysis-reuse-level=0/analysis-save-reuse-level=0/analysis-load-reuse-level=0/scale-factor=0/refine-intra=0/refine-inter=0/refine-mv=1/refine-ctu-distortion=0/no-limit-sao/ctu-info=0/no-lowpass-dct/refine-analysis-type=0/copy-pic=1/max-ausize-factor=1.0/no-dynamic-refine/no-single-sei/no-hevc-aq/no-svt/no-field/qp-adaptation-range=1.00/no-scenecut-aware-qpconformance-window-offsets/right=0/bottom=0
Default : Да
Forced : Нет
Цветовой диапазон : Limited
Основные цвета : BT.709
Характеристики трансфера : BT.709
Коэффициенты матрицы : BT.709
Аудио #1
Идентификатор : 2
Формат : AC-3
Формат/Информация : Audio Coding 3
Идентификатор кодека : A_AC3
Продолжительность : 1 ч. 40 м.
Вид битрейта : Постоянный
Битрейт : 192 Кбит/сек
Каналы : 2 канала
Расположение каналов : Front: L R
Частота : 48, 0 КГц
Частота кадров : 31, 250 кадров/сек (1536 SPF)
Битовая глубина : 16 бит
Метод сжатия : С потерями
Размер потока : 138 Мбайт (2%)
Заголовок : MVO студия Нота по заказу РТР
Язык : Russian
ServiceKind/String : Complete Main
Default : Нет
Forced : Нет
Аудио #2
Идентификатор : 3
Формат : AC-3
Формат/Информация : Audio Coding 3
Идентификатор кодека : A_AC3
Продолжительность : 1 ч. 40 м.
Вид битрейта : Постоянный
Битрейт : 224 Кбит/сек
Каналы : 2 канала
Расположение каналов : Front: L R
Частота : 48, 0 КГц
Частота кадров : 31, 250 кадров/сек (1536 SPF)
Битовая глубина : 16 бит
Метод сжатия : С потерями
Размер потока : 161 Мбайт (2%)
Заголовок : DVO
Язык : Russian
ServiceKind/String : Complete Main
Default : Нет
Forced : Нет
Аудио #3
Идентификатор : 4
Формат : AC-3
Формат/Информация : Audio Coding 3
Идентификатор кодека : A_AC3
Продолжительность : 1 ч. 40 м.
Вид битрейта : Постоянный
Битрейт : 192 Кбит/сек
Каналы : 2 канала
Расположение каналов : Front: L R
Частота : 48, 0 КГц
Частота кадров : 31, 250 кадров/сек (1536 SPF)
Битовая глубина : 16 бит
Метод сжатия : С потерями
Размер потока : 138 Мбайт (2%)
Заголовок : VO
Язык : Russian
ServiceKind/String : Complete Main
Default : Нет
Forced : Нет
Аудио #4
Идентификатор : 5
Формат : AC-3
Формат/Информация : Audio Coding 3
Идентификатор кодека : A_AC3
Продолжительность : 1 ч. 40 м.
Вид битрейта : Постоянный
Битрейт : 256 Кбит/сек
Каналы : 2 канала
Расположение каналов : Front: L R
Частота : 48, 0 КГц
Частота кадров : 31, 250 кадров/сек (1536 SPF)
Битовая глубина : 16 бит
Метод сжатия : С потерями
Размер потока : 184 Мбайт (2%)
Язык : Italian
ServiceKind/String : Complete Main
Default : Нет
Forced : Нет
Текст #1
Идентификатор : 6
Формат : UTF-8
Идентификатор кодека : S_TEXT/UTF8
Идентификатор кодека/Информация : UTF-8 Plain Text
Продолжительность : 1 ч. 39 м.
Битрейт : 91 бит/сек
ElementCount : 1204
Размер потока : 66, 0 Кбайт (0%)
Язык : Russian
Default : Нет
Forced : Нет
Текст #2
Идентификатор : 7
Формат : UTF-8
Идентификатор кодека : S_TEXT/UTF8
Идентификатор кодека/Информация : UTF-8 Plain Text
Продолжительность : 1 ч. 37 м.
Битрейт : 58 бит/сек
ElementCount : 1361
Размер потока : 41, 9 Кбайт (0%)
Язык : Italian
Default : Нет
Forced : Нет
Меню
00: 00: 00.000 : en: (01)00: 00: 00: 000
00: 04: 46.828 : en: (02)00: 04: 46: 828
00: 09: 22.144 : en: (03)00: 09: 22: 144
00: 15: 56.080 : en: (04)00: 15: 56: 080
00: 19: 14.361 : en: (05)00: 19: 14: 361
00: 24: 38.226 : en: (06)00: 24: 38: 226
00: 34: 01.998 : en: (07)00: 34: 01: 998
00: 40: 22.002 : en: (08)00: 40: 22: 002
00: 48: 57.434 : en: (09)00: 48: 57: 434
00: 56: 13.370 : en: (10)00: 56: 13: 370
01: 03: 24.258 : en: (11)01: 03: 24: 258
01: 08: 38.989 : en: (12)01: 08: 38: 989
01: 14: 02.771 : en: (13)01: 14: 02: 771
01: 21: 45.817 : en: (14)01: 21: 45: 817
01: 32: 06.020 : en: (15)01: 32: 06: 020
01: 39: 18.786 : en: (16)01: 39: 18: 786

Другие торренты по теме:

  • Бархатные ручки / Mani di velluto (1979) DVDRip скачать через торрент бесплатно
  • Бархатные ручки / Mani di velluto (1979) DVDRip
  • Бархатные ручки / Mani di velluto (1979) BDRip [H.264 / 1080p]

  • Посетители, находящиеся в группе Гости, не могут оставлять комментарии в данной новости.