Подписывайся на наш канал в Telegram https://t.me/torrentok и получи доступ к торрентам без ограничений!

Коэффициент интеллекта / I.Q. (1994) WEBRip [H.264 / 1080p] торрент скачать бесплатно

Коэффициент интеллекта / I.Q. (1994) WEBRip [H.264 / 1080p]Производство: США/Paramount Pictures, Sandollar
Жанр: мелодрама, комедия
Режиссер: Фред Скеписи

Актеры
Тим Роббинс, Мег Райан, Уолтер Мэттау, Лу Джекоби, Джин Сэкс, Джозеф Maэp, Стивен Фрай, Тони Шэлуб, Фрэнк Уэйли, Чарльз Дёрнинг

Описание

В роли свахи выступает сам Альберт Эйнштейн. В его племянницу влюбился простой механик, очень симпатичный парень. А племянница обручена с занудным и неприятным ученым. Эйнштейн хочет, чтобы она была с механиком, который лихо прокатил его на мотоцикле.
Для того, чтобы она обратила на него внимание, он открыл ему формулу холодного термоядерного синтеза для ракетных двигателей, и тот произвел сенсацию во всем мире. Но долго такой обман длиться не может. Сохранится ли любовь после разоблачения?


Возраст: 12+ (зрителям, достигшим 12 лет)
Рейтинг MPAA: PG (рекомендуется присутствие родителей)
Продолжительность: 01: 35: 41
Качество видео: WEBRip
Перевод: Многоголосый профессиональный, авторский
Субтитры: русские, английские
Видео: AVC/H.264, 1920x1080, ~13.4 mbps
Аудио 1: AC3, 2 ch, 192 kbps, Русский (MVO)
Аудио 2: AC3, 2 ch, 192 kbps, Русский (MVO Paramount Channel)
Аудио 3: AC3, 2 ch, 192 kbps, Русский (AVO А.Гаврилов)
Аудио 4: E-AC3, 6 ch, 640 kbps, Английский
Общее
Уникальный идентификатор : 246166512026724784739570412139078690350 (0xB931F21833347629B32E65FE6107262E)
Полное имя : F: I.Q.1994.1080p.AMZN.WEBRip.mkv
Формат : Matroska
Версия формата : Version 4
Размер файла : 9, 75 Гбайт
Продолжительность : 1 ч. 35 м.
Режим общего битрейта : Переменный
Общий поток : 14, 6 Мбит/сек
Название фильма : I.Q. (1994)
Дата кодирования : UTC 2020-08-26 04: 27: 48
Программа кодирования : mkvmerge v8.2.0 (\'World of Adventure\') 64bit
Библиотека кодирования : libebml v1.3.1 + libmatroska v1.4.2
Видео
Идентификатор : 1
Формат : AVC
Формат/Информация : Advanced Video Codec
Профиль формата : [email protected]
Настройки формата : CABAC/4 Ref Frames
Параметр CABAC формата : Да
Параметр RefFrames формата : 4 кадра
Идентификатор кодека : V_MPEG4/ISO/AVC
Продолжительность : 1 ч. 35 м.
Вид битрейта : Переменный
Битрейт : 13, 4 Мбит/сек
Максимальный битрейт : 15, 0 Мбит/сек
Ширина : 1 920 пикселей
Высота : 1 080 пикселей
Соотношение сторон : 16: 9
Режим частоты кадров : Постоянный
Частота кадров : 23, 976 (24000/1001) кадра/сек
Цветовое пространство : YUV
Субдискретизация насыщенности : 4: 2: 0
Битовая глубина : 8 бит
Тип развёртки : Прогрессивная
Бит/(Пиксели*Кадры) : 0.269
Размер потока : 8, 94 Гбайт (92%)
Заголовок : I.Q.
Библиотека кодирования : x264 core 148 r2623 d5b2374
Настройки программы : cabac=1/ref=4/deblock=1: -1: -1/analyse=0x3: 0x133/me=umh/subme=9/psy=1/psy_rd=1.00: 0.15/mixed_ref=1/me_range=24/chroma_me=1/trellis=2/8x8dct=1/cqm=0/deadzone=21, 11/fast_pskip=1/chroma_qp_offset=-3/threads=34/lookahead_threads=5/sliced_threads=0/nr=150/decimate=1/interlaced=0/bluray_compat=0/constrained_intra=0/bframes=8/b_pyramid=2/b_adapt=2/b_bias=0/direct=3/weightb=1/open_gop=0/weightp=2/keyint=120/keyint_min=61/scenecut=0/intra_refresh=0/rc_lookahead=120/rc=crf/mbtree=1/crf=18.0/qcomp=0.60/qpmin=0/qpmax=69/qpstep=4/vbv_maxrate=15000/vbv_bufsize=31250/crf_max=0.0/nal_hrd=vbr/filler=0/ip_ratio=1.40/aq=3: 1.00
Язык : English
Default : Да
Forced : Нет
Цветовой диапазон : Limited
Основные цвета : BT.709
Характеристики трансфера : BT.709
Коэффициенты матрицы : BT.709
Аудио #1
Идентификатор : 2
Формат : AC-3
Формат/Информация : Audio Coding 3
Коммерческое название : Dolby Digital
Идентификатор кодека : A_AC3
Продолжительность : 1 ч. 35 м.
Вид битрейта : Постоянный
Битрейт : 192 Кбит/сек
Каналы : 2 канала
Channel layout : L R
Частота : 48, 0 КГц
Частота кадров : 31, 250 кадров/сек (1536 SPF)
Метод сжатия : С потерями
Размер потока : 131 Мбайт (1%)
Заголовок : MVO
Язык : Russian
Service kind : Complete Main
Default : Да
Forced : Да
Аудио #2
Идентификатор : 3
Формат : AC-3
Формат/Информация : Audio Coding 3
Коммерческое название : Dolby Digital
Идентификатор кодека : A_AC3
Продолжительность : 1 ч. 35 м.
Вид битрейта : Постоянный
Битрейт : 192 Кбит/сек
Каналы : 2 канала
Channel layout : L R
Частота : 48, 0 КГц
Частота кадров : 31, 250 кадров/сек (1536 SPF)
Метод сжатия : С потерями
Размер потока : 131 Мбайт (1%)
Заголовок : MVO Paramount channel
Язык : Russian
Service kind : Complete Main
Default : Нет
Forced : Нет
Аудио #3
Идентификатор : 4
Формат : AC-3
Формат/Информация : Audio Coding 3
Коммерческое название : Dolby Digital
Идентификатор кодека : A_AC3
Продолжительность : 1 ч. 35 м.
Вид битрейта : Постоянный
Битрейт : 192 Кбит/сек
Каналы : 2 канала
Channel layout : L R
Частота : 48, 0 КГц
Частота кадров : 31, 250 кадров/сек (1536 SPF)
Метод сжатия : С потерями
Размер потока : 131 Мбайт (1%)
Заголовок : AVO А. Гаврилов
Язык : Russian
Service kind : Complete Main
Default : Нет
Forced : Нет
Аудио #4
Идентификатор : 5
Формат : E-AC-3
Формат/Информация : Enhanced AC-3
Коммерческое название : Dolby Digital Plus
Идентификатор кодека : A_EAC3
Продолжительность : 1 ч. 35 м.
Вид битрейта : Постоянный
Битрейт : 640 Кбит/сек
Каналы : 6 каналов
Channel layout : L R C LFE Ls Rs
Частота : 48, 0 КГц
Частота кадров : 31, 250 кадров/сек (1536 SPF)
Метод сжатия : С потерями
Размер потока : 438 Мбайт (4%)
Заголовок : Original
Язык : English
Service kind : Complete Main
Default : Нет
Forced : Нет
Текст #1
Идентификатор : 6
Формат : UTF-8
Идентификатор кодека : S_TEXT/UTF8
Идентификатор кодека/Информация : UTF-8 Plain Text
Продолжительность : 1 ч. 31 м.
Битрейт : 120 бит/сек
Count of elements : 1883
Размер потока : 80, 4 Кбайт (0%)
Язык : Russian
Default : Да
Forced : Нет
Текст #2
Идентификатор : 7
Формат : UTF-8
Идентификатор кодека : S_TEXT/UTF8
Идентификатор кодека/Информация : UTF-8 Plain Text
Продолжительность : 1 ч. 32 м.
Битрейт : 72 бит/сек
Count of elements : 2051
Размер потока : 48, 8 Кбайт (0%)
Заголовок : English
Язык : English
Default : Нет
Forced : Нет
Меню
00: 00: 00.000 : : The Grand Design
00: 10: 25.200 : : Wonderful To The Power Of 10
00: 17: 23.867 : : Wahoo
00: 24: 06.701 : : A Million Kisses On Your Skin
00: 28: 20.368 : : Intelligent Life On Earth
00: 37: 33.035 : : Cold Fusion
00: 48: 26.202 : : Accidental Discoveries
00: 53: 49.869 : : True Nature Of Intelligence
01: 00: 51.869 : : Question Everything
01: 09: 34.536 : : A Big Lie
01: 21: 09.203 : : Operation Red Cabbage
01: 27: 06.370 : : BOOM
01: 31: 38.537 : : End Credits

Скриншоты для ознакомления



Все одноименные релизы в Клубе
Время раздачи: c 5 до 19 мск (до появления первых 3-5 скачавших)

Другие торренты по теме:


Посетители, находящиеся в группе Гости, не могут оставлять комментарии в данной новости.