Подписывайся на наш канал в Telegram https://t.me/torrentok и получи доступ к торрентам без ограничений!

Игры джентльменов / The Ladykillers (2004) WEB-DL [H.264 / 720p] торрент скачать бесплатно

Игры джентльменов / The Ladykillers (2004) WEB-DL [H.264 / 720p]Производство: США/Touchstone Pictures, The Jacobson Company, Mike Zoss Productions
Жанр: триллер, комедия, криминал
Режиссер: Итан Коэн, Джоэл Коэн

Актеры
Том Хэнкс, Ирма П. Холл, Марлон Уайанс, Дж.К. Симмонс, Ци Ма, Райан Херст, Дайан Делано, Джордж Уоллес, Джон МакКоннелл, Джейсон Уивер

Описание

Голдтуэйт Хиггинсон Дорр, странный профессор из южных штатов, разрабатывает план ограбления казино, базирующегося на речном корабле. Он собирает команду воров, снимает для них комнату в доме, владелицей которого является одна старая дама, миссис Мансон.


Возраст: 16+ (зрителям, достигшим 16 лет)
Рейтинг MPAA: R (лицам до 17 лет обязательно присутствие взрослого)
Продолжительность: 01: 44: 20
Качество видео: WEB-DL
Перевод: Дублированный, многоголосый профессиональный, авторский
Субтитры: отсутствуют
Видео: AVC/H.264, 1280x688, ~4296 kbps
Аудио 1: AC3, 6 ch, 384 kbps, Русский (MVO)
Аудио 2: AC3, 6 ch, 384 kbps, Русский (DUB)
Аудио 3: AC3, 6 ch, 384 kbps, Русский (AVO Ю.Сербин)
Аудио 4: AC3, 6 ch, 384 kbps, Английский
Channel layout : L R C LFE Ls Rs
Частота : 48, 0 КГц
Частота кадров : 31, 250 кадров/сек (1536 SPF)
Метод сжатия : С потерями
Размер потока : 287 Мбайт (7%)
Заголовок : MVO
Язык : Russian
Service kind : Complete Main
Default : Нет
Forced : Нет
Аудио #2
Идентификатор : 3
Формат : AC-3
Формат/Информация : Audio Coding 3
Коммерческое название : Dolby Digital
Идентификатор кодека : A_AC3
Продолжительность : 1 ч. 44 м.
Вид битрейта : Постоянный
Битрейт : 384 Кбит/сек
Каналы : 6 каналов
Channel layout : L R C LFE Ls Rs
Частота : 48, 0 КГц
Частота кадров : 31, 250 кадров/сек (1536 SPF)
Метод сжатия : С потерями
Размер потока : 287 Мбайт (7%)
Заголовок : Dub
Язык : Russian
Service kind : Complete Main
Default : Да
Forced : Нет
Аудио #3
Идентификатор : 4
Формат : AC-3
Формат/Информация : Audio Coding 3
Коммерческое название : Dolby Digital
Идентификатор кодека : A_AC3
Продолжительность : 1 ч. 44 м.
Вид битрейта : Постоянный
Битрейт : 384 Кбит/сек
Каналы : 6 каналов
Channel layout : L R C LFE Ls Rs
Частота : 48, 0 КГц
Частота кадров : 31, 250 кадров/сек (1536 SPF)
Метод сжатия : С потерями
Размер потока : 287 Мбайт (7%)
Заголовок : AVO Serbin
Язык : Russian
Service kind : Complete Main
Default : Нет
Forced : Нет
Аудио #4
Идентификатор : 5
Формат : AC-3
Формат/Информация : Audio Coding 3
Коммерческое название : Dolby Digital
Идентификатор кодека : A_AC3
Продолжительность : 1 ч. 44 м.
Вид битрейта : Постоянный
Битрейт : 384 Кбит/сек
Каналы : 6 каналов
Channel layout : L R C LFE Ls Rs
Частота : 48, 0 КГц
Частота кадров : 31, 250 кадров/сек (1536 SPF)
Метод сжатия : С потерями
Размер потока : 287 Мбайт (7%)
Заголовок : Original
Язык : English
Service kind : Complete Main
Default : Нет
Forced : Нет
Меню
00: 00: 00.000 : en: Opening Credits
00: 12: 04.000 : en: Members of the Ensemble
00: 19: 21.000 : en: Shine on Me
00: 28: 26.000 : en: Practicing Music
00: 34: 06.000 : en: The Bandit Queen
00: 42: 49.000 : en: A New Friend
00: 49: 38.000 : en: Bad Timing
00: 56: 03.000 : en: Trouble
01: 05: 26.000 : en: Entertaining the Ladies
01: 15: 18.000 : en: A Middle Way
01: 23: 38.000 : en: Dazzling Conversation
01: 38: 23.000 : en: End Credits

Скриншоты для ознакомления



Все одноименные релизы в Клубе
Время раздачи: c 5 до 19 мск (до появления первых 3-5 скачавших)

Другие торренты по теме:

  • Игры джентльменов / The Ladykillers (2004) WEBRip [H.264 / 1080p]
  • Игры джентльменов / The Ladykillers (2004) WEB-DL [1080p] ATV

  • Посетители, находящиеся в группе Гости, не могут оставлять комментарии в данной новости.