Подписывайся на наш канал в Telegram https://t.me/torrentok и получи доступ к торрентам без ограничений!

Наблюдающий / Watching (2019) WEB-DLRip [DVO] торрент скачать бесплатно

Наблюдающий / Watching (2019) WEB-DLRip [DVO]Производство: Корея Южная, LiTTLE BiG PiCTURES
Жанр: Криминал, триллер
Режиссер: Ким Сон-ги

Актеры
Кан Е-вон, Ли Хак-чу, Чу Сок-тхэ, Лим Сэ-джу, Ким Но-джин, Мён Ге-нам, Мин Гён-джин, Чо Даль-хван

Описание

Главная героиня фильма Наблюдающий работает начальником отдела стратегического планирования в крупной фирме. В этом большом здании повсюду камеры, что должно обеспечивать безопасность людей. Но что если кто-то использует их для своих целей? Так, наша героиня остается одна в большом здании, запертая и под слежкой одного с виду милого охранника, который всего-то хочет романтики, правда ему совсем неважно хочет ли близости объект его преследования.

Релиз от: Rip by vitolinform
Продолжительность: 01: 37: 55
Качество видео: WEB-DLRip
Перевод: Двуголосый любительский (Jade Studio)
Субтитры: отсутствуют
Видео: Xvid, 720x304, ~1655 kbps
Аудио 1: AC3, 2 ch, 192 Кbps | Русский (DVO, Jade Studio)
Аудио 2: AC3, 2 ch, 224 Кbps | Корейский
Общее
Полное имя : C: Watching.2019.WEB-DLRip.avi
Формат : AVI
Формат/Информация : Audio Video Interleave
Размер файла : 1, 43 Гбайт
Продолжительность : 1 ч. 37 м.
Общий поток : 2 085 Кбит/сек
Название фильма : Наблюдающий/Watching (2019) WEB-DLRip
Режиссёр : Ким Сон-ги/Kim Sung-gi
Жанр : Криминал, триллер
Программа кодирования : VirtualDubMod 1.5.10.2 (build 2542/release)
Формат оригинала/Имя : Художественный фильм
Авторское право : Корея Южная, LiTTLE BiG PiCTURES
Примечание : Rip by vitolinform
Видео
Идентификатор : 0
Формат : MPEG-4 Visual
Профиль формата : Advanced [email protected]
Настройки формата : BVOP1
Параметр BVOP формата : 1
Параметр QPel формата : Нет
Параметр GMC формата : Без точки перехода
Параметр матрицы формата : Default (MPEG)
Идентификатор кодека : XVID
Идентификатор кодека/Подсказка : XviD
Продолжительность : 1 ч. 37 м.
Битрейт : 1 655 Кбит/сек
Ширина : 720 пикселей
Высота : 304 пикселя
Соотношение сторон : 2, 35: 1
Частота кадров : 23, 976 (24000/1001) кадра/сек
Цветовое пространство : YUV
Субдискретизация насыщенности : 4: 2: 0
Битовая глубина : 8 бит
Тип развёртки : Прогрессивная
Метод сжатия : С потерями
Бит/(Пиксели*Кадры) : 0.315
Размер потока : 1, 13 Гбайт (79%)
Библиотека кодирования : XviD 67
Аудио #1
Идентификатор : 1
Формат : AC-3
Формат/Информация : Audio Coding 3
Коммерческое название : Dolby Digital
Идентификатор кодека : 2000
Продолжительность : 1 ч. 37 м.
Вид битрейта : Постоянный
Битрейт : 192 Кбит/сек
Каналы : 2 канала
Channel layout : L R
Частота : 48, 0 КГц
Частота кадров : 31, 250 кадров/сек (1536 SPF)
Метод сжатия : С потерями
Размер потока : 134 Мбайт (9%)
Выравнивание : Разделение по промежуткам
Продолжительность промежутка : 42 мс. (1, 00 видеокадр)
Время предзагрузки промежутка : 500 мс.
Заголовок : Russian
Service kind : Complete Main
Аудио #2
Идентификатор : 2
Формат : AC-3
Формат/Информация : Audio Coding 3
Коммерческое название : Dolby Digital
Идентификатор кодека : 2000
Продолжительность : 1 ч. 37 м.
Вид битрейта : Постоянный
Битрейт : 224 Кбит/сек
Каналы : 2 канала
Channel layout : L R
Частота : 48, 0 КГц
Частота кадров : 31, 250 кадров/сек (1536 SPF)
Метод сжатия : С потерями
Размер потока : 157 Мбайт (11%)
Выравнивание : Разделение по промежуткам
Продолжительность промежутка : 42 мс. (1, 00 видеокадр)
Время предзагрузки промежутка : 500 мс.
Заголовок : Korean
Service kind : Complete Main

Скриншоты для ознакомления



Все одноименные релизы в Клубе
Время раздачи: 24/7 (мультитрекерная раздача) (до появления первых 3-5 скачавших)

Другие торренты по теме:


Посетители, находящиеся в группе Гости, не могут оставлять комментарии в данной новости.