Подписывайся на наш канал в Telegram https://t.me/torrentok и получи доступ к торрентам без ограничений!

Страна Лавкрафта / Lovecraft Country (2020) WEBRip [H.264 / 1080p-LQ] (сезон 1, серии 1-2 из 10) Gears Media (обновляемая) торрент скачать бесплатно

Страна Лавкрафта / Lovecraft Country (2020) WEBRip [H.264 / 1080p-LQ] (сезон 1, серии 1-2 из 10) Gears Media (обновляемая)Производство: США/Bad Robot, Monkeypaw Productions, Warner Bros. Television
Жанр: Ужасы, фантастика, фэнтези, триллер, драма, детектив
Режиссер: Дэниэл Сакхайм, Ян Деманж, Шерил Дьюнай

Актеры
Джонатан Мэйджерс, Джерни Смоллетт, Кортни Б. Вэнс, Майкл Кеннет Уильямс, Чейз Браун, Онжаню Эллис, Маркус А. Гриффин мл., Эбби Ли, Вунми Моссаку, Джада Харрис и др.

Описание

22-летний ветеран Корейской войны Аттикус вместе с подругой детства и дядей отправляется в путешествие по Штатам на поиски отца. На пути он встретится не только с расистами, но и с настоящими монстрами.


Дата мировой премьеры: 16 августа 2020
Релиз от: Gears Media
Продолжительность: ~01: 10: 00 серия
Качество видео: WEBRip
Перевод: Двуголосый профессиональный (Gears Media)
Реклама: присутствуют видео, аудио, текстовые вставки рекламы
Видео: AVC/H.264, 1920x1080 (16;9), ~8823 Kbps
Аудио: AC3, 2 ch, 384 kbps
Format : Matroska
Format version : Version 4
File size : 4.51 GiB
Duration : 1 h 10 min
Overall bit rate : 9 209 kb/s
Encoded date : UTC 2020-08-17 16: 40: 07
Writing application : mkvmerge v45.0.0 (\'Heaven in Pennies\') 64-bit
Writing library : libebml v1.3.10 + libmatroska v1.5.2
Video
ID : 1
Format : AVC
Format/Info : Advanced Video Codec
Format profile : [email protected]
Format settings : CABAC/4 Ref Frames
Format settings, CABAC : Yes
Format settings, Reference : 4 frames
Codec ID : V_MPEG4/ISO/AVC
Duration : 1 h 10 min
Bit rate : 8 823 kb/s
Width : 1 920 pixels
Height : 1 080 pixels
Display aspect ratio : 16: 9
Frame rate mode : Constant
Frame rate : 23.976 (24000/1001) FPS
Color space : YUV
Chroma subsampling : 4: 2: 0
Bit depth : 8 bits
Scan type : Progressive
Bits/(Pixel*Frame) : 0.177
Stream size : 4.32 GiB (96%)
Language : English
Default : Yes
Forced : No
Color range : Limited
Color primaries : BT.709
Transfer characteristics : BT.709
Matrix coefficients : BT.709
Audio
ID : 2
Format : AC-3
Format/Info : Audio Coding 3
Commercial name : Dolby Digital
Codec ID : A_AC3
Duration : 1 h 10 min
Bit rate mode : Constant
Bit rate : 384 kb/s
Channel(s) : 2 channels
Channel layout : L R
Sampling rate : 48.0 kHz
Frame rate : 31.250 FPS (1536 SPF)
Compression mode : Lossy
Stream size : 193 MiB (4%)
Language : Russian
Service kind : Complete Main
Default : Yes
Forced : Yes

Скриншоты для ознакомления


Все одноименные релизы в Клубе
Время раздачи: 24/7 (до появления первых 3-5 скачавших)

Другие торренты по теме:

  • Мэтт Рафф | Страна Лавкрафта (2018) [FB2]
  • Страна Лавкрафта / Lovecraft Country (2020) WEBRip [H.264 / 720p-LQ] (сезон 1, серия 1 из 10) LakeFilms (обновляемая) [AD]
  • Страна Лавкрафта / Lovecraft Country (2020) WEBRip [H.264 / 1080p-LQ] (сезон 1, серия 1 из 10) LakeFilms (обновляемая) [AD]
  • Страна Лавкрафта / Lovecraft Country (2020) WEB-DLRip [H.264 / 720p-LQ] (сезон 1, серии 1 из 10) OMSKBIRD (обновляемая) [AD]
  • Страна Лавкрафта / Lovecraft Country (2020) WEB-DLRip [H.264 / 1080p-LQ] (сезон 1, серии 1 из 10) OMSKBIRD (обновляемая) [AD]
  • Страна Лавкрафта / Lovecraft Country (2020) WEB-DLRip [H.264 / 1080p-LQ] (сезон 1, серии 1 из 10) ViruseProject (обновляемая) [AD]
  • Страна Лавкрафта / Lovecraft Country (2020) WEB-DLRip (сезон 1, серии 1 из 10) ViruseProject (обновляемая)

  • Посетители, находящиеся в группе Гости, не могут оставлять комментарии в данной новости.