Подписывайся на наш канал в Telegram https://t.me/torrentok и получи доступ к торрентам без ограничений!

Убийства Вальгаллы / The Valhalla Murders (2019–2020) WEB-DLRip [H.264 / 1080p-LQ](сезон 1, серии 1-8 из 8) ViruseProject [AD] торрент скачать бесплатно

Убийства Вальгаллы / The Valhalla Murders (2019–2020) WEB-DLRip [H.264 / 1080p-LQ](сезон 1, серии 1-8 из 8) ViruseProject [AD]Производство: Исландия
Жанр: триллер, драма, криминал, детектив
Режиссер: Thordur Palsson, Тора Хилмарсдоттир, Давид Оскар Олафссон

Актеры
Aldís Amah Hamilton, Bergur Ebbi Benediktsson, Эдда Бьёргвинсдоттир, Gunnar Bersi Björnsson, Адндис Хрёдн Эгильсдоттир, Нина Дёгг Филиппусдоуттир, Отто Гуннарссон, Тинна Храфнсдоттир, Сигюрдюр Скуласон, Бьёрн Торс и д.р.

Описание

Убийства Вальгаллы - расскажет о криминалисте, которого отправляют из Копенгагена в родную Исландию для поимки первого в истории страны серийного убийцы. Преступник оказывается каким-то образом связан с местом, где 35 лет назад совершались некие страшные злодеяния.


Релиз от: ViruseProject
Продолжительность: ~00: 50: 00 серии
Качество видео: WEB-DLRip 1080p
Перевод: Двуголосый профессиональный (ViruseProject)
Субтитры: Русские
Реклама: Присутствуют видео, аудио вставки рекламы
Видео: AVC/H.264, 1920 x 1080 (16: 9), ~2975 Kbps
Аудио #1: AC3, 2 ch, 192 Kbps - русский
Аудио #2: AAC, 2 ch, 192 Kbps - исландский
Общее
Уникальный идентификатор : 197210314131951037105762025911056665194 (0x945D532ECD0244E48A0B1C927E510A6A)
Полное имя : F: ОЗВУЧКА888-ЗАЛИВ-888The.Valhalla.Murders.S01.ViruseProjectThe.Valhalla.Murders.S01.1080p.ViruseProjectThe.Valhalla.Murders.S01E01.1080p.WEB-DLRip.ViruseProject.mkv
Формат : Matroska
Версия формата : Version 4
Размер файла : 1, 09 Гбайт
Продолжительность : 46 м. 33 с.
Общий поток : 3 357 Кбит/сек
Дата кодирования : UTC 2020-08-24 19: 23: 32
Программа кодирования : mkvmerge v8.3.0 (\'Over the Horizon\') 64bit
Библиотека кодирования : libebml v1.3.1 + libmatroska v1.4.2
Видео
Идентификатор : 1
Формат : AVC
Формат/Информация : Advanced Video Codec
Профиль формата : [email protected]
Настройки формата : CABAC/4 Ref Frames
Параметр CABAC формата : Да
Параметр RefFrames формата : 4 кадра
Идентификатор кодека : V_MPEG4/ISO/AVC
Продолжительность : 46 м. 33 с.
Битрейт : 2 973 Кбит/сек
Ширина : 1 920 пикселей
Высота : 1 080 пикселей
Соотношение сторон : 16: 9
Режим частоты кадров : Постоянный
Частота кадров : 25, 000 кадров/сек
Цветовое пространство : YUV
Субдискретизация насыщенности : 4: 2: 0
Битовая глубина : 8 бит
Тип развёртки : Прогрессивная
Бит/(Пиксели*Кадры) : 0.057
Размер потока : 990 Мбайт (89%)
Язык : English
Default : Да
Forced : Нет
Цветовой диапазон : Limited
Основные цвета : BT.709
Характеристики трансфера : BT.709
Коэффициенты матрицы : BT.709
Аудио #1
Идентификатор : 2
Формат : AC-3
Формат/Информация : Audio Coding 3
Коммерческое название : Dolby Digital
Идентификатор кодека : A_AC3
Продолжительность : 46 м. 32 с.
Вид битрейта : Постоянный
Битрейт : 192 Кбит/сек
Каналы : 2 канала
Channel layout : L R
Частота : 48, 0 КГц
Частота кадров : 31, 250 кадров/сек (1536 SPF)
Метод сжатия : С потерями
Размер потока : 63, 9 Мбайт (6%)
Заголовок : ViruseProject
Язык : Russian
Service kind : Complete Main
Default : Да
Forced : Нет
Аудио #2
Идентификатор : 3
Формат : AAC LC
Формат/Информация : Advanced Audio Codec Low Complexity
Идентификатор кодека : A_AAC-2
Продолжительность : 46 м. 33 с.
Битрейт : 192 Кбит/сек
Каналы : 2 канала
Channel layout : L R
Частота : 48, 0 КГц
Частота кадров : 46, 875 кадров/сек (1024 SPF)
Метод сжатия : С потерями
Размер потока : 63, 1 Мбайт (6%)
Язык : Icelandic
Default : Нет
Forced : Нет
Текст
Идентификатор : 4
Формат : UTF-8
Идентификатор кодека : S_TEXT/UTF8
Идентификатор кодека/Информация : UTF-8 Plain Text
Продолжительность : 45 м. 16 с.
Битрейт : 81 бит/сек
Count of elements : 484
Размер потока : 27, 1 Кбайт (0%)
Язык : Russian
Default : Нет
Forced : Нет

Скриншоты для ознакомления



Все одноименные релизы в Клубе
Время раздачи: с 10: 00 до 24: 00 (до появления первых 3-5 скачавших)

Другие торренты по теме:

  • Убийства Вальгаллы / The Valhalla Murders (2019 – 2020) WEB-DLRip (сезон 1, серии 1-8 из 8) ViruseProject

  • Посетители, находящиеся в группе Гости, не могут оставлять комментарии в данной новости.