Подписывайся на наш канал в Telegram https://t.me/torrentok и получи доступ к торрентам без ограничений!

Русалка в Париже / Une sirene a Paris (2020) WEB-DL [H.264 / 1080p-LQ] торрент скачать бесплатно

Русалка в Париже / Une sirene a Paris (2020) WEB-DL [H.264 / 1080p-LQ]Производство: Франция/Entre Chien et Loup
Жанр: фэнтези, мелодрама, комедия
Режиссер: Матиас Мальзьё

Актеры
Николя Дювошель, Мэрилин Лима, Романа Боренже, Чеки Карио, Росси де Пальма, Алексис Михалик, Лу Гала, Николас Уллман

Описание

Он — талантливый артист с невероятной харизмой и прекрасным чувством юмора. Однако его сердце — неприступный бастион даже для самых сногсшибательных девушек Парижа. Всё изменится, когда, гуляя по ночной набережной Сены, он повстречает настоящую русалку. Теперь для музыканта не имеет значения, что любовь к этим красавицам веками губила сердца мужчин…


Премьера в Росcии: 1 августа 2020
Премьера в мире: 4 марта 2020

Возраст: 12+ (зрителям, достигшим 12 лет)
Продолжительность: 01: 38: 13
Качество видео: WEB-DL
Перевод: Дублированный (iTunes)
Субтитры: русские (форс., полные)
Видео: AVC/H.264, 1920х804, ~4, 5 Mbps
Аудио #1: AC3, 6 ch, 384 kbps - русский
Аудио #2: AC3, 6 ch, 384 kbps - французский
Unique ID : 330791727967601230978386135826686220102 (0xF8DC2B5F6D22E1F1E5166949A1771746)
Complete name : D: TempNNMРусалка в Париже.2020.mkv
Format : Matroska
Format version : Version 4/Version 2
File size : 3.64 GiB
Duration : 1h 38mn
Overall bit rate : 5 309 Kbps
Movie name : RUSALKA_in_PARIS_2020
Encoded date : UTC 2020-08-27 18: 21: 35
Writing application : mkvmerge v43.0.0 (\'The Quartermaster\') 64-bit
Writing library : libebml v1.3.10 + libmatroska v1.5.2
Video
ID : 1
Format : AVC
Format/Info : Advanced Video Codec
Format profile : [email protected]
Format settings, CABAC : Yes
Format settings, ReFrames : 5 frames
Codec ID : V_MPEG4/ISO/AVC
Duration : 1h 38mn
Bit rate : 4 435 Kbps
Width : 1 920 pixels
Height : 804 pixels
Display aspect ratio : 2.40: 1
Frame rate mode : Constant
Frame rate : 25.000 fps
Color space : YUV
Chroma subsampling : 4: 2: 0
Bit depth : 8 bits
Scan type : Progressive
Bits/(Pixel*Frame) : 0.115
Stream size : 3.04 GiB (84%)
Title : RUSALKA_in_PARIS_2020_WEB-DL_1080p
Language : English
Default : Yes
Forced : No
Color primaries : BT.709
Transfer characteristics : BT.709
Matrix coefficients : BT.709
Audio #1
ID : 2
Format : AC-3
Format/Info : Audio Coding 3
Mode extension : CM (complete main)
Format settings, Endianness : Big
Codec ID : A_AC3
Duration : 1h 38mn
Bit rate mode : Constant
Bit rate : 384 Kbps
Channel(s) : 6 channels
Channel positions : Front: L C R, Side: L R, LFE
Sampling rate : 48.0 KHz
Bit depth : 16 bits
Compression mode : Lossy
Delay relative to video : -40ms
Stream size : 270 MiB (7%)
Title : DUB DD 5.1 @ 384 kbps (iTunes)
Language : Russian
Default : Yes
Forced : No
Audio #2
ID : 3
Format : AC-3
Format/Info : Audio Coding 3
Mode extension : CM (complete main)
Format settings, Endianness : Big
Codec ID : A_AC3
Duration : 1h 38mn
Bit rate mode : Constant
Bit rate : 384 Kbps
Channel(s) : 6 channels
Channel positions : Front: L C R, Side: L R, LFE
Sampling rate : 48.0 KHz
Bit depth : 16 bits
Compression mode : Lossy
Delay relative to video : -40ms
Stream size : 270 MiB (7%)
Title : ORIGINAL DD 5.1 @ 384 kbps (iTunes)
Language : French
Default : No
Forced : No
Text #1
ID : 4
Format : UTF-8
Codec ID : S_TEXT/UTF8
Codec ID/Info : UTF-8 Plain Text
Title : Full-length
Language : Russian
Default : No
Forced : No
Text #2
ID : 5
Format : UTF-8
Codec ID : S_TEXT/UTF8
Codec ID/Info : UTF-8 Plain Text
Title : Forced
Language : Russian
Default : Yes
Forced : No
Menu
00: 00: 00.000 : en: Глава 1
00: 02: 41.040 : en: Глава 2
00: 12: 12.240 : en: Глава 3
00: 20: 44.640 : en: Глава 4
00: 31: 46.840 : en: Глава 5
00: 35: 01.480 : en: Глава 6
00: 41: 12.080 : en: Глава 7
00: 49: 32.120 : en: Глава 8
00: 58: 28.920 : en: Глава 9
01: 12: 25.680 : en: Глава 10
01: 20: 05.760 : en: Глава 11
01: 31: 30.880 : en: Глава 12

Скриншоты для ознакомления



Все одноименные релизы в Клубе
Время раздачи: 24/7 (до появления первых 3-5 скачавших)

Другие торренты по теме:

  • Моя Русалка, Моя Лореляй / Лорелей / My Mermaid, My Lorelei (2013) SATRip
  • Русалка / Mei ren yu (2016) WEBRip [H.264 / 720p-LQ] [VO]
  • Русалка / Mei ren yu (2016) HDRip [VO]
  • Русалка / Mei ren yu (2016) BDRip 3D [H.264 / 1080p] [Горизонтальная анаморфная стереопара] [VO]
  • Русалка / Mei ren yu (2016) BDRip [H.264 / 1080p-LQ]
  • Владимир Колычев | Русалка в золотой чешуе (2016) [FB2]
  • Русалка. Озеро мертвых (2018) TS [H.264 / 720p-LQ] [AD]
  • Александр Пушкин | Русалка (1949) [MP3]

  • Посетители, находящиеся в группе Гости, не могут оставлять комментарии в данной новости.