Подписывайся на наш канал в Telegram https://t.me/torrentok и получи доступ к торрентам без ограничений!

Вий (1967) BDRip [H.265 / 1080p] [10-bit] [US Transfer] торрент скачать бесплатно

Вий (1967) BDRip [H.265 / 1080p] [10-bit] [US Transfer]Производство: СССР/Луч, Мосфильм
Жанр: Ужасы, фэнтези, драма
Режиссер: Георгий Кропачев, Константин Ершов

Актеры
Леонид Куравлёв, Наталья Варлей, Алексей Глазырин, Николай Кутузов, Вадим Захарченко, Петр Вескляров, Владимир Сальников, Дмитрий Капка, Степан Шкурат, Георгий Сочевко

Описание

Студент-философ Хома Брут должен провести несколько ночей у гроба умершей панночки в старой церквушке в далекой деревне. Сможет ли он побороть свой страх, или ему придется столкнуться с нечистой силой?


Возраст: 12+ (зрителям, достигшим 12 лет)
Релиз от: KORSAR
Продолжительность: 01: 16: 35
Качество видео: BDRip
Перевод: Не требуется
Субтитры: Русские, английские
Видео: HEVC/H.265, 1480х1080, ~8200 Kbps
Аудио: AC3, 2 ch, 448 Kbps - РусскийGeneral
Unique ID : 243496687247943987671181470793981523008 (0xB72FC191EE834F6C9F3802C87D5C7440)
Complete name : Вий (1967) US Transfer BDRip-HEVC 1080p - KORSAR.mkv
Format : Matroska
Format version : Version 4/Version 2
File size : 4.63 GiB
Duration : 1 h 16 min
Overall bit rate : 8 651 kb/s
Movie name : Вий (1967)_rip_dy_Cthulhu
Encoded date : UTC 2019-11-12 16: 55: 18
Writing application : mkvmerge v37.0.0 (\'Leave It\') 64-bit
Writing library : libebml v1.3.9 + libmatroska v1.5.2
Cover : Yes
Attachments : cover14.jpg
Video
ID : 1
Format : HEVC
Format/Info : High Efficiency Video Coding
Format profile : [email protected]@High
Codec ID : V_MPEGH/ISO/HEVC
Duration : 1 h 16 min
Bit rate : 8 200 kb/s
Width : 1 480 pixels
Height : 1 080 pixels
Display aspect ratio : 1.370
Frame rate mode : Constant
Frame rate : 23.976 (24000/1001) FPS
Color space : YUV
Chroma subsampling : 4: 2: 0
Bit depth : 10 bits
Bits/(Pixel*Frame) : 0.214
Stream size : 4.39 GiB (95%)
Writing library : x265 3.2+5-a3a088a7262f: WindowsGCC 9.2.064 bit 10bit
Encoding settings : cpuid=1111039/frame-threads=4/numa-pools=16/wpp/no-pmode/no-pme/no-psnr/no-ssim/log-level=2/input-csp=1/input-res=1480x1080/interlace=0/total-frames=110160/level-idc=41/high-tier=1/uhd-bd=0/ref=5/no-allow-non-conformance/no-repeat-t_heads/annexb/no-aud/no-hrd/info/hash=0/no-temporal-layers/open-gop/min-keyint=23/keyint=240/gop-lookahead=0/bframes=10/b-adapt=2/b-pyramid/bframe-bias=0/rc-lookahead=60/lookahead-slices=1/scenecut=40/radl=0/no-splice/no-intra-refresh/ctu=32/min-cu-size=8/rect/amp/max-tu-size=32/tu-inter-depth=4/tu-intra-depth=4/limit-tu=1/rdoq-level=2/dynamic-rd=0.00/no-ssim-rd/signhide/no-tskip/nr-intra=0/nr-inter=0/no-constrained-intra/no-strong-intra-smoothing/max-merge=5/limit-refs=3/limit-modes/me=3/subme=7/merange=57/temporal-mvp/no-hme/weightp/weightb/no-analyze-src-pics/deblock=-3: -2/no-sao/no-sao-non-deblock/rd=6/selective-sao=0/no-early-skip/no-rskip/no-fast-intra/no-tskip-fast/no-cu-lossless/no-b-intra/no-splitrd-skip/rdpenalty=0/psy-rd=1.80/psy-rdoq=1.05/no-rd-refine/no-lossless/cbqpoffs=0/crqpoffs=0/rc=crf/crf=19.0/qcomp=0.67/qpstep=4/stats-write=0/stats-read=0/vbv-maxrate=50000/vbv-bufsize=50000/vbv-init=0.9/crf-max=0.0/crf-min=0.0/ipratio=1.40/pbratio=1.30/aq-mode=1/aq-strength=1.00/no-cutree/zone-count=0/no-strict-cbr/qg-size=32/no-rc-grain/qpmax=69/qpmin=0/no-const-vbv/sar=1/overscan=0/videoformat=5/range=0/colorprim=1/transfer=1/colormatrix=1/chromaloc=0/display-window=0/cll=0, 0/min-luma=0/max-luma=1023/log2-max-poc-lsb=8/vui-timing-info/vui-hrd-info/slices=1/no-opt-qp-pps/no-opt-ref-list-length-pps/no-multi-pass-opt-rps/scenecut-bias=0.05/no-opt-cu-delta-qp/no-aq-motion/no-hdr/no-hdr-opt/no-dhdr10-opt/no-idr-recovery-sei/analysis-reuse-level=5/scale-factor=0/refine-intra=0/refine-inter=0/refine-mv=1/refine-ctu-distortion=0/no-limit-sao/ctu-info=0/no-lowpass-dct/refine-analysis-type=0/copy-pic=1/max-ausize-factor=1.0/no-dynamic-refine/no-single-sei/hevc-aq/no-svt/no-field/qp-adaptation-range=2.00
Language : Russian
Default : Yes
Forced : No
Color range : Limited
Color primaries : BT.709
Transfer characteristics : BT.709
Matrix coefficients : BT.709
Audio
ID : 2
Format : AC-3
Format/Info : Audio Coding 3
Commercial name : Dolby Digital
Codec ID : A_AC3
Duration : 1 h 16 min
Bit rate mode : Constant
Bit rate : 448 kb/s
Channel(s) : 2 channels
Channel layout : L R
Sampling rate : 48.0 kHz
Frame rate : 31.250 FPS (1536 SPF)
Bit depth : 16 bits
Compression mode : Lossy
Stream size : 245 MiB (5%)
Language : Russian
Service kind : Complete Main
Default : Yes
Forced : No
Text #1
ID : 3
Format : UTF-8
Codec ID : S_TEXT/UTF8
Codec ID/Info : UTF-8 Plain Text
Duration : 1 h 14 min
Bit rate : 46 b/s
Count of elements : 471
Stream size : 25.3 KiB (0%)
Language : Russian
Default : No
Forced : No
Text #2
ID : 4
Format : UTF-8
Codec ID : S_TEXT/UTF8
Codec ID/Info : UTF-8 Plain Text
Duration : 1 h 15 min
Bit rate : 30 b/s
Count of elements : 472
Stream size : 17.0 KiB (0%)
Language : English
Default : No
Forced : No
Text #3
ID : 5
Format : UTF-8
Codec ID : S_TEXT/UTF8
Codec ID/Info : UTF-8 Plain Text
Duration : 1 h 15 min
Bit rate : 47 b/s
Count of elements : 896
Stream size : 26.2 KiB (0%)
Title : SDH
Language : English
Default : No
Forced : No
Menu
00: 00: 00.000 : ru: Титры/Начало каникул в семинарии
00: 05: 28.203 : ru: Поиски ночлега
00: 12: 04.306 : ru: Мистические приключения
00: 15: 27.885 : ru: Приказ ректора
00: 18: 38.992 : ru: В дороге
00: 28: 11.188 : ru: Последнее желание панночки
00: 32: 17.601 : ru: Прощание с покойной
00: 39: 10.054 : ru: Первая ночь в церкви
00: 46: 03.217 : ru: Наутро
00: 50: 07.168 : ru: Кошмары второй ночи
00: 55: 33.911 : ru: Музыкантов! Непременно музыкантов!
00: 57: 18.015 : ru: Разговор с паном сотником
01: 01: 36.315 : ru: Побег не удался...
01: 05: 55.699 : ru: Чертовщина третьей ночи
01: 13: 08.005 : ru: Эпилог. Поминание Хомы Брута
JPN Transfer-----vs-----US Transfer: https://screenshotcomparison.com/comparison/5793/
Скриншоты для ознакомления



Все одноименные релизы в Клубе
Время раздачи: 24/7 (мультитрекерная раздача)

Другие торренты по теме:

  • Крест-накрест / XX (ekusu kurosu): makyо densetsu / X-Cross (2007) BDRip [DVO]
  • Наркобизнес / The Business of Drugs (2020) BDRip [H.264 / 720p] (Сезон 1, серии 1-6 из 6)
  • Пиноккио / Pinocchio (1940) BDRip [H.264 / 1080p]
  • Vatican Kiseki Chousakan | Vatican Miracle Examiner | Инспекторы чудес Ватикана [2017, TV, 12 из 12] BDRip 1080p raw
  • Нимани (Восход Эдерлези) / A.I. Rising (2018) BDRip [H.264 / 1080p] [PR]
  • Карты, деньги, два ствола / Lock, Stock and Two Smoking Barrels (1998) BDRip [H.264 / 720p]
  • Продавец четырех времен года / The Merchant of Four Seasons / Handler der vier Jahreszeiten (1971) BDRip [H.264 / 720p] [Criterion Collection]
  • Львица / Rogue (2020) BDRip [H.264 / 1080p]

  • Посетители, находящиеся в группе Гости, не могут оставлять комментарии в данной новости.