Подписывайся на наш канал в Telegram https://t.me/torrentok и получи доступ к торрентам без ограничений!

Основной инстинкт 2: Жажда риска / Basic Instinct 2 (2006) BDRip [H.265 / 1080p] [10-bit] [Unrated] [Open Matte] торрент скачать бесплатно

Основной инстинкт 2: Жажда риска / Basic Instinct 2 (2006) BDRip [H.265 / 1080p] [10-bit] [Unrated] [Open Matte]Производство: Великобритания, Германия, Испания, США/Metro-Goldwyn-Mayer (MGM), Intermedia Films, Kanzaman S.A.
Жанр: Триллер, драма, детектив
Режиссер: Майкл Кейтон-Джонс

Актеры
Шэрон Стоун, Дэвид Морисси, Шарлотта Рэмплинг, Дэвид Тьюлис, Хью Дэнси, Стэн Коллимор, Нил Мэскелл, Жан Чаппель, Теренс Харви, Эллен Томас, Марк Сэнгстер, Тим Беррингтон

Описание

На писательницу Кэтрин Трэммел вновь падает подозрение в причастности к преступлению. Скотланд-Ярд обращается к доктору Майклу Глассу за помощью в профессиональном заключении о состоянии психического здоровья Кэтрин. Но Гласс, как когда-то детектив Каррен, попадает под чары роковой женщины.


Возраст: 18+ (зрителям, достигшим 18 лет. запрещено для детей)
Рейтинг MPAA: R (лицам до 17 лет обязательно присутствие взрослого)
Релиз от: KORSAR
Продолжительность: 01: 55: 47
Качество видео: BDRip
Перевод: Дублированный, авторский
Субтитры: Русские, английские
Видео: HEVC/H.265, 1918x1080, ~8099 Kbps
Аудио 1: AC3, 6 ch, 448 Kbps - Русский (DUB, Мосфильм-Мастер)
Аудио 2: AC3, 6 ch, 384 Kbps - Русский (AVO, А. Гаврилов)
Аудио 3: AC3, 6 ch, 640 Kbps - Английский (Оригинал)x265 info: frame I: 1398, Avg QP: 17.34 kb/s: 35362.07
x265 info: frame P: 28787, Avg QP: 18.59 kb/s: 20792.04
x265 info: frame B: 136376, Avg QP: 21.00 kb/s: 5139.02
==============================================================
General
Unique ID : 290858071067202552332473815528643699384 (0xDAD13A13BA00A9C2A3C18769228F22B8)
Complete name : Основной инстинкт 2. Жажда риска - Basic Instinct 2 (2006) UNRATED Open Matte BDRip-HEVC 1080p - KORSAR.mkv
Format : Matroska
Format version : Version 4/Version 2
File size : 7.74 GiB
Duration : 1 h 55 min
Overall bit rate : 9 574 kb/s
Movie name : Basic Instinct 2 (2006)_rip_by_Cthulhu
Encoded date : UTC 2020-08-09 10: 34: 58
Writing application : mkvmerge v46.0.0 (\'No Deeper Escape\') 64-bit
Writing library : libebml v1.3.10 + libmatroska v1.5.2
Cover : Yes
Attachments : cover11.jpg
Video
ID : 1
Format : HEVC
Format/Info : High Efficiency Video Coding
Format profile : [email protected]@High
Codec ID : V_MPEGH/ISO/HEVC
Duration : 1 h 55 min
Bit rate : 8 099 kb/s
Width : 1 918 pixels
Height : 1 080 pixels
Display aspect ratio : 16: 9
Frame rate mode : Constant
Frame rate : 23.976 (24000/1001) FPS
Color space : YUV
Chroma subsampling : 4: 2: 0
Bit depth : 10 bits
Bits/(Pixel*Frame) : 0.163
Stream size : 6.55 GiB (85%)
Writing library : x265 3.3+2-gbe2d82093: WindowsGCC 10.0.164 bit 10bit
Encoding settings : cpuid=1111039/frame-threads=4/numa-pools=16/wpp/no-pmode/no-pme/no-psnr/no-ssim/log-level=2/input-csp=1/input-res=1918x1080/interlace=0/total-frames=166561/level-idc=41/high-tier=1/uhd-bd=0/ref=5/no-allow-non-conformance/no-repeat-t_heads/annexb/no-aud/no-hrd/info/hash=0/no-temporal-layers/open-gop/min-keyint=23/keyint=240/gop-lookahead=0/bframes=10/b-adapt=2/b-pyramid/bframe-bias=0/rc-lookahead=60/lookahead-slices=1/scenecut=40/hist-scenecut=0/radl=0/no-splice/no-intra-refresh/ctu=32/min-cu-size=8/rect/amp/max-tu-size=32/tu-inter-depth=4/tu-intra-depth=4/limit-tu=1/rdoq-level=2/dynamic-rd=0.00/no-ssim-rd/signhide/no-tskip/nr-intra=0/nr-inter=0/no-constrained-intra/no-strong-intra-smoothing/max-merge=5/limit-refs=3/limit-modes/me=3/subme=7/merange=57/temporal-mvp/no-frame-dup/hme/Level/merange/L0, L1, L2=16, 32, 57/weightp/weightb/no-analyze-src-pics/deblock=-3: -2/no-sao/no-sao-non-deblock/rd=4/selective-sao=0/no-early-skip/rskip/rskip-edge-threshold=0.050000/no-fast-intra/no-tskip-fast/no-cu-lossless/b-intra/no-splitrd-skip/rdpenalty=0/psy-rd=1.60/psy-rdoq=1.00/no-rd-refine/no-lossless/cbqpoffs=0/crqpoffs=0/rc=crf/crf=20.5/qcomp=0.67/qpstep=4/stats-write=0/stats-read=0/vbv-maxrate=50000/vbv-bufsize=50000/vbv-init=0.9/crf-max=0.0/crf-min=0.0/ipratio=1.40/pbratio=1.30/aq-mode=1/aq-strength=1.00/no-cutree/zone-count=0/no-strict-cbr/qg-size=32/no-rc-grain/qpmax=69/qpmin=0/no-const-vbv/sar=1/overscan=0/videoformat=5/range=0/colorprim=1/transfer=1/colormatrix=1/chromaloc=0/display-window=0/cll=0, 0/min-luma=0/max-luma=1023/log2-max-poc-lsb=8/vui-timing-info/vui-hrd-info/slices=1/no-opt-qp-pps/no-opt-ref-list-length-pps/no-multi-pass-opt-rps/scenecut-bias=0.05/hist-threshold=0.01/no-opt-cu-delta-qp/no-aq-motion/no-hdr10/no-hdr10-opt/no-dhdr10-opt/no-idr-recovery-sei/analysis-reuse-level=0/analysis-save-reuse-level=0/analysis-load-reuse-level=0/scale-factor=0/refine-intra=0/refine-inter=0/refine-mv=1/refine-ctu-distortion=0/no-limit-sao/ctu-info=0/no-lowpass-dct/refine-analysis-type=0/copy-pic=1/max-ausize-factor=1.0/no-dynamic-refine/no-single-sei/no-hevc-aq/no-svt/no-field/qp-adaptation-range=1.00/no-scenecut-aware-qpconformance-window-offsets/right=0/bottom=0
Language : English
Default : Yes
Forced : No
Color range : Limited
Color primaries : BT.709
Transfer characteristics : BT.709
Matrix coefficients : BT.709
Audio #1
ID : 2
Format : AC-3
Format/Info : Audio Coding 3
Commercial name : Dolby Digital
Codec ID : A_AC3
Duration : 1 h 55 min
Bit rate mode : Constant
Bit rate : 448 kb/s
Channel(s) : 6 channels
Channel layout : L R C LFE Ls Rs
Sampling rate : 48.0 kHz
Frame rate : 31.250 FPS (1536 SPF)
Bit depth : 16 bits
Compression mode : Lossy
Stream size : 371 MiB (5%)
Title : Дубляж Мосфильм-Мастер
Language : Russian
Service kind : Complete Main
Default : Yes
Forced : No
Audio #2
ID : 3
Format : AC-3
Format/Info : Audio Coding 3
Commercial name : Dolby Digital
Codec ID : A_AC3
Duration : 1 h 55 min
Bit rate mode : Constant
Bit rate : 384 kb/s
Channel(s) : 6 channels
Channel layout : L R C LFE Ls Rs
Sampling rate : 48.0 kHz
Frame rate : 31.250 FPS (1536 SPF)
Bit depth : 16 bits
Compression mode : Lossy
Stream size : 318 MiB (4%)
Title : AVO Гаврилов
Language : Russian
Service kind : Complete Main
Default : No
Forced : No
Audio #3
ID : 4
Format : AC-3
Format/Info : Audio Coding 3
Commercial name : Dolby Digital
Codec ID : A_AC3
Duration : 1 h 55 min
Bit rate mode : Constant
Bit rate : 640 kb/s
Channel(s) : 6 channels
Channel layout : L R C LFE Ls Rs
Sampling rate : 48.0 kHz
Frame rate : 31.250 FPS (1536 SPF)
Bit depth : 16 bits
Compression mode : Lossy
Stream size : 530 MiB (7%)
Language : English
Service kind : Complete Main
Default : No
Forced : No
Text #1
ID : 5
Format : UTF-8
Codec ID : S_TEXT/UTF8
Codec ID/Info : UTF-8 Plain Text
Duration : 30 min 24 s
Bit rate : 2 b/s
Count of elements : 8
Stream size : 492 Bytes (0%)
Title : forced
Language : Russian
Default : No
Forced : No
Text #2
ID : 6
Format : UTF-8
Codec ID : S_TEXT/UTF8
Codec ID/Info : UTF-8 Plain Text
Duration : 1 h 50 min
Bit rate : 79 b/s
Count of elements : 1002
Stream size : 64.7 KiB (0%)
Title : full
Language : Russian
Default : No
Forced : No
Text #3
ID : 7
Format : UTF-8
Codec ID : S_TEXT/UTF8
Codec ID/Info : UTF-8 Plain Text
Duration : 1 h 48 min
Bit rate : 50 b/s
Count of elements : 1185
Stream size : 40.4 KiB (0%)
Language : English
Default : No
Forced : No
Menu
00: 00: 00.000 : pl: Rozdział 01
00: 05: 05.763 : pl: Rozdział 02
00: 11: 35.069 : pl: Rozdział 03
00: 21: 31.039 : pl: Rozdział 04
00: 29: 00.905 : pl: Rozdział 05
00: 40: 19.834 : pl: Rozdział 06
00: 44: 36.048 : pl: Rozdział 07
00: 54: 47.409 : pl: Rozdział 08
01: 04: 33.703 : pl: Rozdział 09
01: 13: 33.242 : pl: Rozdział 10
01: 24: 49.459 : pl: Rozdział 11
01: 36: 14.435 : pl: Rozdział 12
01: 55: 45.688 : pl: Rozdział 13

Скриншоты для ознакомления



Все одноименные релизы в Клубе
Время раздачи: 24/7 (мультитрекерная раздача)

Другие торренты по теме:

  • Документальное кино Леонида Млечина. Знаменитые соблазнители. Основной инстинкт Майкла Дугласа (2014) SATRip скачать через торрент бесплатно
  • Основной инстинкт / Basic Instinct (1992) BDRemux [H.264 / 1080p] скачать через торрент бесплатно
  • Основной инстинкт / Basic Instinct (1992) BDRip [H.264 / 1080p] скачать через торрент бесплатно
  • Основной инстинкт / Basic Instinct (1992) BDRip [H.265 / 1080p-LQ]
  • Основной инстинкт / Basic Instinct (1992) BDRip [H.265 / 1080p-LQ]
  • Основной инстинкт 2: Жажда риска / Basic Instinct 2 (2006) BDRip [H.265 / 1080p-LQ]
  • Оксана Лаврентьева | Основной инстинкт ведьмы (2017) [FB2, EPUB]
  • Основной инстинкт / Basic Instinct (1992) BDRip [H.264]

  • Посетители, находящиеся в группе Гости, не могут оставлять комментарии в данной новости.