Подписывайся на наш канал в Telegram https://t.me/torrentok и получи доступ к торрентам без ограничений!

Мария - королева Шотландии / Mary, Queen of Scots (1971) BDRip [H.264 / 720p] торрент скачать бесплатно

Мария - королева Шотландии / Mary, Queen of Scots (1971) BDRip [H.264 / 720p]Производство: Великобритания/Universal Pictures
Жанр: Драма, биография, история
Режиссер: Чарльз Джэррот

Актеры
Ванесса Редгрейв, Гленда Джексон, Патрик МакГуэн, Тимоти Долтон, Найджел Дэвенпор, Тревор Ховард, Дэниел Мэсси, Иэн Холм, Эндрю Кир, Том Флеминг и др.

Описание

Драматическая история Марии Стюарт, последней католической королевы Шотландии, претендовавшей на английский престол. В результате противостояния с королевой Англии, Елизаветой Тюдор, Мария теряет свободу, а впоследствии и жизнь, взойдя на эшафот по обвинению в заговоре с целью убийства Елизаветы.


Возраст: 12+ (зрителям, достигшим 12 лет)
Продолжительность: 02: 08: 04
Качество видео: BDRip
Перевод: Двуголосый профессиональный
Субтитры: Английские
Видео: AVC/H.264, 1280x542, ~7032 kbps
Аудио 1: AC3, 2 ch, 192 kbps | Русский – DVO (СВ-Дубль )
Аудио 2: AC3, 2 ch, 192 kbps | Русский – DVO (НТВ+)
Аудио 3: AC3, 2 ch, 192 kbps | Английский (Оригинал)
Общее
Уникальный идентификатор : 228207145953870515749220791499699054782 (0xABAF18FBC2DCCDE6BE2664B3A670E8BE)
Полное имя : H: НАЧАЛО V ВЕКА – КОНЕЦ XV ВЕКАМария - королева ШотландииМария - королева Шотландии. 1971.BDRip 720p.mkv
Формат : Matroska
Версия формата : Version 4/Version 2
Размер файла : 6, 81 Гбайт
Продолжительность : 2 ч. 8 м.
Общий поток : 7610 Кбит/сек
Название фильма : Release from Topmost
Дата кодирования : UTC 2020-08-28 04: 28: 16
Программа кодирования : mkvmerge v6.2.0 (\'Promised Land\') built on Apr 28 2013 12: 22: 01
Библиотека кодирования : libebml v1.3.0 + libmatroska v1.4.0
Attachment : Yes
Видео
Идентификатор : 1
Формат : AVC
Формат/Информация : Advanced Video Codec
Профиль формата : [email protected]
Параметр CABAC формата : Да
Параметр ReFrames формата : 12 кадров
Идентификатор кодека : V_MPEG4/ISO/AVC
Продолжительность : 2 ч. 8 м.
Битрейт : 7032 Кбит/сек
Ширина : 1280 пикселей
Высота : 542 пикселя
Соотношение сторон : 2, 35: 1
Режим частоты кадров : Постоянный
Частота кадров : 23, 976 кадра/сек
Цветовое пространство : YUV
Субдискретизация насыщенности : 4: 2: 0
Битовая глубина : 8 бит
Тип развёртки : Прогрессивная
Бит/(Пиксели*Кадры) : 0.423
Размер потока : 6, 16 Гбайт (90%)
Заголовок : Мария - королева Шотландии/Release from Topmost/
Библиотека кодирования : x264 core 146 r2538 121396c
Настройки программы : cabac=1/ref=12/deblock=1: -3: -3/analyse=0x3: 0x113/me=umh/subme=11/psy=1/psy_rd=1.00: 0.15/mixed_ref=1/me_range=32/chroma_me=1/trellis=2/8x8dct=1/cqm=0/deadzone=21, 11/fast_pskip=0/chroma_qp_offset=-3/threads=12/lookahead_threads=2/sliced_threads=0/nr=0/decimate=0/interlaced=0/bluray_compat=0/constrained_intra=0/bframes=8/b_pyramid=2/b_adapt=2/b_bias=0/direct=1/weightb=1/open_gop=0/weightp=2/keyint=240/keyint_min=23/scenecut=40/intra_refresh=0/rc_lookahead=40/rc=2pass/mbtree=0/bitrate=7032/ratetol=1.0/qcomp=0.60/qpmin=0/qpmax=69/qpstep=4/cplxblur=20.0/qblur=0.5/vbv_maxrate=14000/vbv_bufsize=14000/nal_hrd=none/filler=0/ip_ratio=1.40/pb_ratio=1.30/aq=1: 0.90
Язык : English
Default : Да
Forced : Нет
Аудио #1
Идентификатор : 2
Формат : AC-3
Формат/Информация : Audio Coding 3
Расширение режима : CM (complete main)
Параметр Endianness формата : Big
Идентификатор кодека : A_AC3
Продолжительность : 2 ч. 8 м.
Вид битрейта : Постоянный
Битрейт : 192 Кбит/сек
Каналы : 2 канала
Расположение каналов : Front: L R
Частота : 48, 0 КГц
Битовая глубина : 16 бит
Метод сжатия : С потерями
Размер потока : 176 Мбайт (3%)
Заголовок : DVO СВ – Дубль
Язык : Russian
Default : Да
Forced : Нет
Аудио #2
Идентификатор : 3
Формат : AC-3
Формат/Информация : Audio Coding 3
Расширение режима : CM (complete main)
Параметр Endianness формата : Big
Идентификатор кодека : A_AC3
Продолжительность : 2 ч. 8 м.
Вид битрейта : Постоянный
Битрейт : 192 Кбит/сек
Каналы : 2 канала
Расположение каналов : Front: L R
Частота : 48, 0 КГц
Битовая глубина : 16 бит
Метод сжатия : С потерями
Размер потока : 176 Мбайт (3%)
Заголовок : DVO НТВ+
Язык : Russian
Default : Нет
Forced : Нет
Аудио #3
Идентификатор : 4
Формат : AC-3
Формат/Информация : Audio Coding 3
Расширение режима : CM (complete main)
Параметр Endianness формата : Big
Идентификатор кодека : A_AC3
Продолжительность : 2 ч. 8 м.
Вид битрейта : Постоянный
Битрейт : 192 Кбит/сек
Каналы : 2 канала
Расположение каналов : Front: L R
Частота : 48, 0 КГц
Битовая глубина : 16 бит
Метод сжатия : С потерями
Размер потока : 176 Мбайт (3%)
Язык : English
Default : Нет
Forced : Нет
Текст
Идентификатор : 5
Формат : UTF-8
Идентификатор кодека : S_TEXT/UTF8
Идентификатор кодека/Информация : UTF-8 Plain Text
Язык : English
Default : Нет
Forced : Нет
Меню
00: 00: 00.000 : en: 01
00: 12: 50.185 : en: 02
00: 25: 30.612 : en: 03
00: 36: 29.895 : en: 04
00: 52: 44.744 : en: 05
01: 01: 52.583 : en: 06
01: 13: 14.514 : en: 07
01: 25: 08.144 : en: 08
01: 41: 29.249 : en: 09
01: 55: 35.303 : en: 10

Скриншоты для ознакомления




Все одноименные релизы в Клубе
Время раздачи: 24/7 до 5 скачавших (до появления первых 3-5 скачавших)

Другие торренты по теме:

  • Мария Мордасова - Королева частушек (2004) 3CD [MP3|~190 кб / с (V2)]<Народные песни, частушки>
  • Наталья Павлищева | Мария Стюарт. Королева, несущая гибель (2020) [MP3]

  • Посетители, находящиеся в группе Гости, не могут оставлять комментарии в данной новости.