Подписывайся на наш канал в Telegram https://t.me/torrentok и получи доступ к торрентам без ограничений!

Защитник (Только правда) / The Whole Truth (2015) BDRip [H.264 / 1080p] торрент скачать бесплатно

Защитник (Только правда) / The Whole Truth (2015) BDRip [H.264 / 1080p]Производство: США/Atlas Entertainment, Likely Story, Merced Media Partners, Palm-Star Entertainment, Whole Truth Productions
Жанр: Триллер, драма, криминал, детектив
Режиссер: Кортни Хант

Актеры
Киану Ривз, Рене Зеллвегер, Гугу Эмбата-Ро, Шон Бриджерс, Джеймс Белуши, Кеннет Чои, Гэбриел Бассо, Кристофер Берри, Томас Мерфи, Лара Грайс

Описание

Убит богатый банкир. Полиция застает его сына рядом с телом. Доказательства кажутся неопровержимыми, и подросток оказывается под следствием. За дело берется адвокат Ричард Рэмси. Желая докопаться до истины, он сам оказывается в смертельной опасности.


Возраст: 18+ (зрителям, достигшим 18 лет. запрещено для детей)
Рейтинг MPAA: R (лицам до 17 лет обязательно присутствие взрослого)
Продолжительность: 01: 33: 00
Качество видео: BDRip
Перевод: Многоголосый профессиональный (iTunes)
Субтитры: Английские (Full)
Видео: AVC/H.264, 1920х804, ~7762 Kbps
Аудио: AC3, 6 ch, 384 Kbps, русский (MVO)
Аудио: AC3, 6 ch, 448 Kbps, английский (оригинал)
Общее
Уникальный идентификатор : 225675679694714179501370049660296421726 (0xA9C78E0F86828B69B35CD1C391CCE15E)
Полное имя : E: DownloadsZashchitnikBDRip1080p.mkv
Формат : Matroska
Версия формата : Version 4
Размер файла : 5, 61 Гбайт
Продолжительность : 1 ч. 33 м.
Общий поток : 8 591 Кбит/сек
Дата кодирования : UTC 2020-08-27 17: 59: 19
Программа кодирования : mkvmerge v9.5.0 (\'Quiet Fire\') 64bit
Библиотека кодирования : libebml v1.3.4 + libmatroska v1.4.5
Видео
Идентификатор : 1
Формат : AVC
Формат/Информация : Advanced Video Codec
Профиль формата : [email protected]
Настройки формата : CABAC/5 Ref Frames
Параметр CABAC формата : Да
Параметр RefFrames формата : 5 кадров
Идентификатор кодека : V_MPEG4/ISO/AVC
Продолжительность : 1 ч. 33 м.
Битрейт : 7 762 Кбит/сек
Ширина : 1 920 пикселей
Высота : 804 пикселя
Соотношение сторон : 2, 40: 1
Режим частоты кадров : Постоянный
Частота кадров : 23, 976 (23976/1000) кадра/сек
Цветовое пространство : YUV
Субдискретизация насыщенности : 4: 2: 0
Битовая глубина : 8 бит
Тип развёртки : Прогрессивная
Бит/(Пиксели*Кадры) : 0.210
Размер потока : 5, 07 Гбайт (90%)
Заголовок : Sisendrovich(R)
Библиотека кодирования : x264 core 161 r3018 db0d417
Настройки программы : cabac=1/ref=5/deblock=1: -1: -1/analyse=0x3: 0x133/me=tesa/subme=11/psy=1/psy_rd=1.00: 0.00/mixed_ref=1/me_range=32/chroma_me=1/trellis=2/8x8dct=1/cqm=0/deadzone=21, 11/fast_pskip=0/chroma_qp_offset=-2/threads=24/lookahead_threads=4/sliced_threads=0/nr=0/decimate=0/interlaced=0/bluray_compat=0/constrained_intra=0/bframes=8/b_pyramid=2/b_adapt=2/b_bias=0/direct=3/weightb=1/open_gop=0/weightp=2/keyint=240/keyint_min=23/scenecut=40/intra_refresh=0/rc_lookahead=60/rc=2pass/mbtree=0/bitrate=7762/ratetol=1.0/qcomp=0.70/qpmin=0/qpmax=69/qpstep=4/cplxblur=20.0/qblur=0.5/vbv_maxrate=50000/vbv_bufsize=62500/nal_hrd=none/filler=0/ip_ratio=1.40/pb_ratio=1.30/aq=3: 0.90
Язык : English
Default : Да
Forced : Нет
Аудио #1
Идентификатор : 2
Формат : AC-3
Формат/Информация : Audio Coding 3
Коммерческое название : Dolby Digital
Идентификатор кодека : A_AC3
Продолжительность : 1 ч. 33 м.
Вид битрейта : Постоянный
Битрейт : 384 Кбит/сек
Каналы : 6 каналов
Channel layout : L R C LFE Ls Rs
Частота : 48, 0 КГц
Частота кадров : 31, 250 кадров/сек (1536 SPF)
Метод сжатия : С потерями
Размер потока : 257 Мбайт (4%)
Заголовок : rus
Язык : Russian
Service kind : Complete Main
Default : Да
Forced : Нет
Аудио #2
Идентификатор : 3
Формат : AC-3
Формат/Информация : Audio Coding 3
Коммерческое название : Dolby Digital
Идентификатор кодека : A_AC3
Продолжительность : 1 ч. 33 м.
Вид битрейта : Постоянный
Битрейт : 448 Кбит/сек
Каналы : 6 каналов
Channel layout : L R C LFE Ls Rs
Частота : 48, 0 КГц
Частота кадров : 31, 250 кадров/сек (1536 SPF)
Метод сжатия : С потерями
Размер потока : 300 Мбайт (5%)
Заголовок : eng
Язык : English
Service kind : Complete Main
Default : Нет
Forced : Нет
Текст
Идентификатор : 4
Формат : UTF-8
Идентификатор кодека : S_TEXT/UTF8
Идентификатор кодека/Информация : UTF-8 Plain Text
Продолжительность : 1 ч. 26 м.
Битрейт : 62 бит/сек
Count of elements : 1247
Размер потока : 39, 6 Кбайт (0%)
Заголовок : engFull
Язык : English
Default : Нет
Forced : Нет
Меню
00: 00: 00.000 : en: Chapter 01
00: 11: 46.038 : en: Chapter 02
00: 21: 55.605 : en: Chapter 03
00: 35: 39.178 : en: Chapter 04
00: 47: 48.115 : en: Chapter 05
00: 58: 18.661 : en: Chapter 06
01: 10: 01.655 : en: Chapter 07
01: 21: 45.108 : en: Chapter 08

Скриншоты для ознакомления



Все одноименные релизы в Клубе
Время раздачи: 24/7 (мультитрекерная раздача)

Другие торренты по теме:

  • Защитник / Только правда / The Whole Truth (2016) BDRip [1080p] ATV [MVO]

  • Посетители, находящиеся в группе Гости, не могут оставлять комментарии в данной новости.