Подписывайся на наш канал в Telegram https://t.me/torrentok и получи доступ к торрентам без ограничений!

Отмеченный смертью / Marked for Death (1990) WEB-DL [H.264 / 1080p] [Open Matte] торрент скачать бесплатно

Отмеченный смертью / Marked for Death (1990) WEB-DL [H.264 / 1080p] [Open Matte]Производство: США/Victor Grais, Steamroller Productions, Twentieth Century Fox
Жанр: Боевик, Триллер, Драма, Криминал, Приключения
Режиссер: Дуайт Х. Литтл

Актеры
Стивен Сигал, Бейзил Уоллес, Кит Дэвид, Том Райт, Джоанна Пакула, Элизабет Грэйсен, Бетти Форд, Даниэль Харрис, Эл Израэл, Арлен Дин Снайдер

Описание

После смерти напарника Джон Хэтчер, специальный агент отдела по борьбе с наркотиками, решает подать в отставку. Переехав к своей сестре в Чикаго, Хэтчер намеревается вести тихое и размеренное существование. Но этому не суждено было сбыться.
На пути у бывшего полицейского встает ямайская наркомафия во главе со своим жутким главарем по прозвищу Зомби. Хэтчер оказывается втянутым в кровавые разборки.


Возраст: 16+ (зрителям, достигшим 16 лет)
Рейтинг MPAA: R (лицам до 17 лет обязательно присутствие взрослого)
Продолжительность: 01: 33: 16
Качество видео: WEB-DL
Перевод: Дублированный, многоголосый, двухголосый, авторский
Субтитры: русские, английские
Видео: AVC/H.264, 1920x1080, 23.976 fps, ~14.1 Mbps
Аудио #1: AC3, 2 ch, 224 Kbps - Русский (DUB Хлопушка)
Аудио #2: AC3, 6 ch, 448 Kbps - Русский (MVO Blu-ray/ОРТ)
Аудио #3: AC3, 2 ch, 192 Kbps - Русский (DVO Премьер Видео)
Аудио #4: AC3, 2 ch, 224 Kbps - Русский (DVO НТВ)
Аудио #5: AC3, 6 ch, 448 Kbps - Русский (AVO Гаврилов)
Аудио #6: AC3, 6 ch, 640 Kbps - Английский
General
Unique ID : 179820720437406152470543897493304975634 (0x87483604D3F45D22ACD3CB1651432112)
Complete name : D: Marked for Death (1990) Open Matte 1080p.mkv
Format : Matroska
Format version : Version 4
File size : 10.6 GiB
Duration : 1 h 33 min
Overall bit rate mode : Variable
Overall bit rate : 16.2 Mb/s
Encoded date : UTC 2020-08-26 15: 33: 22
Writing application : mkvmerge v8.3.0 (\'Over the Horizon\') 32bit
Writing library : libebml v1.3.1 + libmatroska v1.4.2
Video
ID : 1
Format : AVC
Format/Info : Advanced Video Codec
Format profile : [email protected]
Format settings : CABAC/4 Ref Frames
Format settings, CABAC : Yes
Format settings, Reference : 4 frames
Codec ID : V_MPEG4/ISO/AVC
Duration : 1 h 33 min
Bit rate mode : Variable
Bit rate : 14.1 Mb/s
Maximum bit rate : 15.0 Mb/s
Width : 1 920 pixels
Height : 1 080 pixels
Display aspect ratio : 16: 9
Frame rate mode : Constant
Frame rate : 23.976 (24000/1001) FPS
Color space : YUV
Chroma subsampling : 4: 2: 0
Bit depth : 8 bits
Scan type : Progressive
Bits/(Pixel*Frame) : 0.283
Stream size : 9.16 GiB (87%)
Language : English
Default : Yes
Forced : No
Color range : Limited
Color primaries : BT.709
Transfer characteristics : BT.709
Matrix coefficients : BT.709
Audio #1
ID : 2
Format : AC-3
Format/Info : Audio Coding 3
Commercial name : Dolby Digital
Codec ID : A_AC3
Duration : 1 h 33 min
Bit rate mode : Constant
Bit rate : 224 kb/s
Channel(s) : 2 channels
Channel layout : L R
Sampling rate : 48.0 kHz
Frame rate : 31.250 FPS (1536 SPF)
Bit depth : 16 bits
Compression mode : Lossy
Stream size : 149 MiB (1%)
Title : DUB Хлопушка
Language : Russian
Service kind : Complete Main
Default : Yes
Forced : No
Audio #2
ID : 3
Format : AC-3
Format/Info : Audio Coding 3
Commercial name : Dolby Digital
Codec ID : A_AC3
Duration : 1 h 33 min
Bit rate mode : Constant
Bit rate : 448 kb/s
Channel(s) : 6 channels
Channel layout : L R C LFE Ls Rs
Sampling rate : 48.0 kHz
Frame rate : 31.250 FPS (1536 SPF)
Bit depth : 16 bits
Compression mode : Lossy
Stream size : 299 MiB (3%)
Title : MVO
Language : Russian
Service kind : Complete Main
Default : No
Forced : No
Audio #3
ID : 4
Format : AC-3
Format/Info : Audio Coding 3
Commercial name : Dolby Digital
Codec ID : A_AC3
Duration : 1 h 33 min
Bit rate mode : Constant
Bit rate : 192 kb/s
Channel(s) : 2 channels
Channel layout : L R
Sampling rate : 48.0 kHz
Frame rate : 31.250 FPS (1536 SPF)
Bit depth : 16 bits
Compression mode : Lossy
Stream size : 128 MiB (1%)
Title : DVO Премьер Видео
Language : Russian
Service kind : Complete Main
Default : No
Forced : No
Audio #4
ID : 5
Format : AC-3
Format/Info : Audio Coding 3
Commercial name : Dolby Digital
Codec ID : A_AC3
Duration : 1 h 33 min
Bit rate mode : Constant
Bit rate : 224 kb/s
Channel(s) : 2 channels
Channel layout : L R
Sampling rate : 48.0 kHz
Frame rate : 31.250 FPS (1536 SPF)
Bit depth : 16 bits
Compression mode : Lossy
Stream size : 149 MiB (1%)
Title : DVO НТВ
Language : Russian
Service kind : Complete Main
Default : No
Forced : No
Audio #5
ID : 6
Format : AC-3
Format/Info : Audio Coding 3
Commercial name : Dolby Digital
Codec ID : A_AC3
Duration : 1 h 33 min
Bit rate mode : Constant
Bit rate : 448 kb/s
Channel(s) : 6 channels
Channel layout : L R C LFE Ls Rs
Sampling rate : 48.0 kHz
Frame rate : 31.250 FPS (1536 SPF)
Bit depth : 16 bits
Compression mode : Lossy
Stream size : 299 MiB (3%)
Title : AVO Гаврилов
Language : Russian
Service kind : Complete Main
Default : No
Forced : No
Audio #6
ID : 7
Format : AC-3
Format/Info : Audio Coding 3
Commercial name : Dolby Digital
Codec ID : A_AC3
Duration : 1 h 33 min
Bit rate mode : Constant
Bit rate : 640 kb/s
Channel(s) : 6 channels
Channel layout : L R C LFE Ls Rs
Sampling rate : 48.0 kHz
Frame rate : 31.250 FPS (1536 SPF)
Bit depth : 16 bits
Compression mode : Lossy
Stream size : 427 MiB (4%)
Language : English
Service kind : Complete Main
Default : No
Forced : No
Text #1
ID : 8
Format : UTF-8
Codec ID : S_TEXT/UTF8
Codec ID/Info : UTF-8 Plain Text
Duration : 1 h 27 min
Bit rate : 59 b/s
Count of elements : 602
Stream size : 38.2 KiB (0%)
Language : Russian
Default : No
Forced : No
Text #2
ID : 9
Format : UTF-8
Codec ID : S_TEXT/UTF8
Codec ID/Info : UTF-8 Plain Text
Duration : 1 h 27 min
Bit rate : 39 b/s
Count of elements : 660
Stream size : 25.5 KiB (0%)
Language : English
Default : No
Forced : No

Другие торренты по теме:

  • Отмеченный смертью / Marked for Death (1990) BDRip [H.265 / 1080p] [Main10]
  • Отмеченный смертью / Marked for death (1990) BDRip [H.264 / 720p]
  • Отмеченный смертью / Marked for Death (1990) BDRemux [H.264 / 1080p]
  • Отмеченный смертью / Marked for Death (1990) BDRip [H.264 / 1080p-LQ]

  • Посетители, находящиеся в группе Гости, не могут оставлять комментарии в данной новости.