Подписывайся на наш канал в Telegram https://t.me/torrentok и получи доступ к торрентам без ограничений!

Адреналин 2: Высокое напряжение / Crank: High Voltage (2009) BDRip [H.264 / 1080p] торрент скачать бесплатно

Адреналин 2: Высокое напряжение / Crank: High Voltage (2009) BDRip [H.264 / 1080p]Производство: США/Lionsgate, Lakeshore Entertainment, RadicalMedia
Жанр: криминал, боевик, комедия, фэнтези
Режиссер: Марк Невелдайн, Брайан Тейлор

Актеры
Джейсон Стэйтем, Эми Смарт, Дуайт Йоакам, Бай Лин, Клифтон Коллинз мл., Эфрен Рамирез, Арт Хсю, Хосе Пабло Кантильо, Джозеф Джулиан Сория, Дэвид Кэрредин

Описание

Он умер, но обещал вернуться! Не чудом, а благодаря современным медицинским технологиям Чев Челиос получает новое сердце и новый шанс отомстить своим врагам. Теперь для постоянной подзарядки ему требуется электрический разряд мощностью не меньше, чем у автомобильного аккумулятора.


Возраст: 18+ (зрителям, достигшим 18 лет. запрещено для детей)
Рейтинг MPAA: R (лицам до 17 лет обязательно присутствие взрослого)
Продолжительность: 01: 35: 50
Качество видео: BDRip
Перевод: Дублированный, авторский
Субтитры: русские, английские
Видео: AVC/H.264, 1920x1038, ~20.1 mbps
Аудио 1: DTS, 6 ch, 755 kbps, Русский (DUB)
Аудио 2: AC3, 6 ch, 448 kbps, Русский (AVO Д.Пучков aka Goblin)
Аудио 3: DTS, 6 ch, 1510 kbps, Английский
Общее
Уникальный идентификатор : 249430893960712711758962740414102162422 (0xBBA6A48CCC87A1D7AC1C549841F0CBF6)
Полное имя : F: Crank.2.High.Voltage.2009.1080p.BluRay.mkv
Формат : Matroska
Версия формата : Version 4
Размер файла : 15, 3 Гбайт
Продолжительность : 1 ч. 35 м.
Общий поток : 22, 8 Мбит/сек
Название фильма : Crank: High Voltage (2009)
Дата кодирования : UTC 2020-08-26 05: 36: 20
Программа кодирования : mkvmerge v8.2.0 (\'World of Adventure\') 64bit
Библиотека кодирования : libebml v1.3.1 + libmatroska v1.4.2
Видео
Идентификатор : 1
Формат : AVC
Формат/Информация : Advanced Video Codec
Профиль формата : [email protected]
Настройки формата : CABAC/4 Ref Frames
Параметр CABAC формата : Да
Параметр RefFrames формата : 4 кадра
Параметр GOP формата : N=1
Идентификатор кодека : V_MPEG4/ISO/AVC
Продолжительность : 1 ч. 35 м.
Битрейт : 20, 1 Мбит/сек
Ширина : 1 920 пикселей
Высота : 1 038 пикселей
Соотношение сторон : 1, 85: 1
Режим частоты кадров : Постоянный
Частота кадров : 23, 976 (24000/1001) кадра/сек
Цветовое пространство : YUV
Субдискретизация насыщенности : 4: 2: 0
Битовая глубина : 8 бит
Тип развёртки : Прогрессивная
Бит/(Пиксели*Кадры) : 0.421
Размер потока : 13, 5 Гбайт (88%)
Заголовок : Crank: High Voltage
Язык : English
Default : Да
Forced : Нет
Аудио #1
Идентификатор : 2
Формат : DTS
Формат/Информация : Digital Theater Systems
Идентификатор кодека : A_DTS
Продолжительность : 1 ч. 35 м.
Вид битрейта : Постоянный
Битрейт : 755 Кбит/сек
Каналы : 6 каналов
Channel layout : C L R Ls Rs LFE
Частота : 48, 0 КГц
Частота кадров : 93, 750 кадра/сек (512 SPF)
Битовая глубина : 24 бит
Метод сжатия : С потерями
Размер потока : 517 Мбайт (3%)
Заголовок : DUB
Язык : Russian
Default : Да
Forced : Нет
Аудио #2
Идентификатор : 3
Формат : AC-3
Формат/Информация : Audio Coding 3
Коммерческое название : Dolby Digital
Идентификатор кодека : A_AC3
Продолжительность : 1 ч. 35 м.
Вид битрейта : Постоянный
Битрейт : 448 Кбит/сек
Каналы : 6 каналов
Channel layout : L R C LFE Ls Rs
Частота : 48, 0 КГц
Частота кадров : 31, 250 кадров/сек (1536 SPF)
Метод сжатия : С потерями
Размер потока : 307 Мбайт (2%)
Заголовок : AVO Д.Пучков aka Goblin
Язык : Russian
Service kind : Complete Main
Default : Нет
Forced : Нет
Аудио #3
Идентификатор : 4
Формат : DTS ES XXCH
Формат/Информация : Digital Theater Systems
Коммерческое название : DTS-ES Discrete
Идентификатор кодека : A_DTS
Продолжительность : 1 ч. 35 м.
Вид битрейта : Постоянный
Битрейт : 1 510 Кбит/сек
Каналы : 6 каналов
Channel(s)_Original : 7 каналов
ChannelLayout_Original : C L R Ls Rs Cs LFE
Частота : 48, 0 КГц
Частота кадров : 93, 750 кадра/сек (512 SPF)
Битовая глубина : 24 бит
Метод сжатия : С потерями
Размер потока : 1, 01 Гбайт (7%)
Заголовок : Original
Язык : English
Default : Нет
Forced : Нет
Текст #1
Идентификатор : 5
Формат : UTF-8
Идентификатор кодека : S_TEXT/UTF8
Идентификатор кодека/Информация : UTF-8 Plain Text
Продолжительность : 1 ч. 33 м.
Битрейт : 58 бит/сек
Count of elements : 652
Размер потока : 39, 8 Кбайт (0%)
Язык : Russian
Default : Нет
Forced : Нет
Текст #2
Идентификатор : 6
Формат : UTF-8
Идентификатор кодека : S_TEXT/UTF8
Идентификатор кодека/Информация : UTF-8 Plain Text
Продолжительность : 1 ч. 33 м.
Битрейт : 40 бит/сек
Count of elements : 887
Размер потока : 27, 8 Кбайт (0%)
Язык : English
Default : Нет
Forced : Нет
Меню
00: 00: 00.000 : en: 00: 00: 00.000
00: 05: 55.897 : en: 00: 05: 55.897
00: 09: 38.495 : en: 00: 09: 38.495
00: 15: 22.922 : en: 00: 15: 22.922
00: 20: 45.453 : en: 00: 20: 45.453
00: 25: 21.979 : en: 00: 25: 21.979
00: 29: 07.621 : en: 00: 29: 07.621
00: 36: 20.720 : en: 00: 36: 20.720
00: 42: 15.658 : en: 00: 42: 15.658
00: 47: 47.114 : en: 00: 47: 47.114
00: 50: 10.090 : en: 00: 50: 10.090
00: 54: 15.043 : en: 00: 54: 15.043
01: 01: 00.740 : en: 01: 01: 00.740
01: 06: 31.988 : en: 01: 06: 31.988
01: 15: 19.432 : en: 01: 15: 19.432
01: 20: 22.276 : en: 01: 20: 22.276

Скриншоты для ознакомления



Все одноименные релизы в Клубе
Время раздачи: c 5 до 19 мск (до появления первых 3-5 скачавших)

Другие торренты по теме:

  • Paul Haslinger & VA - Адреналин / Crank (Original Score + Original Soundtrack) (2006) [MP3|320 кб / с]<Soundtrack>
  • Адреналин / Crank (2006) BDRip [H.264 / 720р-LQ] [Directors Cut] скачать через торрент бесплатно
  • Адреналин: Дилогия / Crank: Dilogy (2006, 2009) BDRip [H.264 / 720p] [hand made 60fps] скачать через торрент бесплатно
  • Адреналин / Adrenaline (2015) WEBRip скачать через торрент бесплатно
  • Наталья Милявская | Адреналин (2016) [MP3]
  • VA - Музыкальный адреналин. Top Hits (2016) [MP3|256 Kbps] <Pop>
  • VA - Музыкальный Адреналин. Top Hits 2 (2016) [MP3|256 Kbps] <Pop>
  • VA - Музыкальный адреналин. Сборник 7 (2016) [MP3|256 Kbps] <Pop>

  • Посетители, находящиеся в группе Гости, не могут оставлять комментарии в данной новости.