Подписывайся на наш канал в Telegram https://t.me/torrentok и получи доступ к торрентам без ограничений!

Львица / Rogue (2020) BDRip [H.264 / 1080p-LQ] [MVO] торрент скачать бесплатно

Львица / Rogue (2020) BDRip [H.264 / 1080p-LQ] [MVO]Производство: Великобритания, ЮАР/Grindstone Entertainment Group, Hassell Free Production, Mannequin Pictures
Жанр: Боевик
Режиссер: М. Дж. Бассетт

Актеры
Меган Фокс, Джессика Саттон, Филип Уинчестер, Каллиопе Джейн Тейлор, Ли-Энн Либенберг, Брэндон Оре, Грег Крик, Адам Дикон, Тамер Барджаг, Сисанда Хэнна

Описание

На одной из львиных ферм в Африке, где львов содержат, чтобы потом убить и продать по частям на чёрном рынке, происходит ЧП - львице удаётся сбежать и убить нескольких человек. Неподалёку от этого места отряд наёмников во главе с решительной Сэм высвобождает из заложников дочь губернатора и, уходя от многочисленных и хорошо вооружённых преследователей, находит убежище на той самой заброшенной львиной ферме.


Возраст: 18+ (зрителям, достигшим 18 лет. запрещено для детей)
Рейтинг MPAA: R (лицам до 17 лет обязательно присутствие взрослого)
Релиз от: SergeyAms
Продолжительность: 01: 45: 59
Качество видео: BDRip
Перевод: Многоголосый профессиональный
Субтитры: Русские (форс.), английские (полные)
Видео: AVC/H.264, 1920x800, ~4, 5 Mbps
Аудио #1: AC3, 6 ch, 448 Kbps - русский (MVO, HDRezka)
Unique ID : 183518729314681909277652904773548144550 (0x8A106BEEEA3FDBC4AE7626FC61D277A6)
Complete name : D: TempNNMRogue.2020.1080p.mkv
Format : Matroska
Format version : Version 4/Version 2
File size : 3.66 GiB
Duration : 1h 45mn
Overall bit rate : 4 949 Kbps
Encoded date : UTC 2020-08-26 12: 03: 48
Writing application : mkvmerge v9.8.0 (\'Kuglblids\') 64bit
Writing library : libebml v1.3.4 + libmatroska v1.4.5
DURATION : 01: 38: 04.701000000
Video
ID : 1
Format : AVC
Format/Info : Advanced Video Codec
Format profile : [email protected]
Format settings, CABAC : Yes
Format settings, ReFrames : 5 frames
Codec ID : V_MPEG4/ISO/AVC
Duration : 1h 45mn
Bit rate : 4 500 Kbps
Width : 1 920 pixels
Height : 800 pixels
Display aspect ratio : 2.40: 1
Frame rate mode : Constant
Frame rate : 23.976 fps
Color space : YUV
Chroma subsampling : 4: 2: 0
Bit depth : 8 bits
Scan type : Progressive
Bits/(Pixel*Frame) : 0.122
Stream size : 3.26 GiB (89%)
Writing library : x264 core 157 r2935 545de2f
Encoding settings : cabac=1/ref=5/deblock=1: -2: -2/analyse=0x3: 0x113/me=umh/subme=10/psy=1/psy_rd=1.05: 0.10/mixed_ref=1/me_range=24/chroma_me=1/trellis=2/8x8dct=1/cqm=0/deadzone=21, 11/fast_pskip=0/chroma_qp_offset=-3/threads=13/lookahead_threads=1/sliced_threads=0/nr=0/decimate=0/interlaced=0/bluray_compat=0/constrained_intra=0/bframes=6/b_pyramid=2/b_adapt=2/b_bias=0/direct=1/weightb=1/open_gop=0/weightp=2/keyint=240/keyint_min=24/scenecut=40/intra_refresh=0/rc=2pass/mbtree=0/bitrate=4500/ratetol=1.0/qcomp=0.70/qpmin=3/qpmax=69/qpstep=4/cplxblur=20.0/qblur=0.5/ip_ratio=1.40/pb_ratio=1.30/aq=2: 1.00
Language : English
Default : Yes
Forced : No
Audio
ID : 2
Format : AC-3
Format/Info : Audio Coding 3
Mode extension : CM (complete main)
Format settings, Endianness : Big
Codec ID : A_AC3
Duration : 1h 45mn
Bit rate mode : Constant
Bit rate : 448 Kbps
Channel(s) : 6 channels
Channel positions : Front: L C R, Side: L R, LFE
Sampling rate : 48.0 KHz
Bit depth : 16 bits
Compression mode : Lossy
Stream size : 340 MiB (9%)
Title : MVO HDREZKA
Language : Russian
Default : Yes
Forced : No
Text #1
ID : 3
Format : UTF-8
Codec ID : S_TEXT/UTF8
Codec ID/Info : UTF-8 Plain Text
Title : Forced
Language : Russian
Default : Yes
Forced : Yes
Text #2
ID : 4
Format : UTF-8
Codec ID : S_TEXT/UTF8
Codec ID/Info : UTF-8 Plain Text
Title : Full
Language : English
Default : No
Forced : No

Скриншоты для ознакомления



Все одноименные релизы в Клубе
Время раздачи: 24/7 (до появления первых 3-5 скачавших)

Другие торренты по теме:

  • Львица / Rogue (2020) BDRip [H.264 / 1080p]
  • Львица / Rogue (2020) BDRip [H.264 / 720p] [MVO]
  • Львица / Rogue (2020) BDRemux [H.264 / 1080p] [MVO]
  • Львица / Rogue (2020) HDRip [MVO]
  • Львица / Rogue (2020) BDRemux [H.264 / 1080p] [MVO]

  • Посетители, находящиеся в группе Гости, не могут оставлять комментарии в данной новости.