Подписывайся на наш канал в Telegram https://t.me/torrentok и получи доступ к торрентам без ограничений!

Довод / Tenet (2020) CamRip [H.264 / 720p-LQ] [DVO, AD] торрент скачать бесплатно

Довод / Tenet (2020) CamRip [H.264 / 720p-LQ] [DVO, AD]Производство: Великобритания, США/Syncopy, Warner Bros.
Жанр: Фантастика, боевик
Режиссер: Кристофер Нолан

Актеры
Джон Дэвид Вашингтон, Роберт Паттинсон, Элизабет Дебики, Кеннет Брана, Аарон Тейлор-Джонсон, Клеманс Поэзи, Фиона Дуриф, Майкл Кейн, Эндрю Ховард, Уэс Чэтэм

Описание

После теракта в киевском оперном театре агент ЦРУ объединяется с британской разведкой, чтобы противостоять русскому олигарху, который сколотил состояние на торговле оружием. Для этого агенты используют инверсию времени, заставляющую уже произошедшие события идти вспять.


Возраст: 16+ (зрителям, достигшим 16 лет)
Рейтинг MPAA: PG-13 (детям до 13 лет просмотр нежелателен)
Дата мировой премьеры: 22 августа 2020
Дата российской премьеры: 3 сентября 2020 , Каро-Премьер IMAX
Продолжительность: 02: 26: 00
Качество видео: CamRip
Перевод: Двухголосый любительский (Octopus)
Субтитры: Отсутствуют
Реклама: Присутствуют голосовые и текстовые вставки рекламы
Видео: AVC/H.264, 1280х536, ~2758 Kbps
Аудио: AAC, 2 ch, 384 Kbps, русский (DVO)
Общее
Уникальный идентификатор : 200116190943528914784057748289548864333 (0x968CF9F897EEE59EAC143FC30E724B4D)
Полное имя : E: DownloadsTenet.2020.Pk.TS.72Op.mkv
Формат : Matroska
Версия формата : Version 2
Размер файла : 3, 21 Гбайт
Продолжительность : 2 ч. 26 м.
Режим общего битрейта : Переменный
Общий поток : 3 142 Кбит/сек
Дата кодирования : UTC 2020-08-29 18: 28: 36
Программа кодирования : mkvmerge v8.3.0 (\'Over the Horizon\') 64bit
Библиотека кодирования : libebml v1.3.1 + libmatroska v1.4.2
Видео
Идентификатор : 1
Формат : AVC
Формат/Информация : Advanced Video Codec
Профиль формата : [email protected]
Настройки формата : CABAC/4 Ref Frames
Параметр CABAC формата : Да
Параметр RefFrames формата : 4 кадра
Идентификатор кодека : V_MPEG4/ISO/AVC
Продолжительность : 2 ч. 26 м.
Вид битрейта : Переменный
Битрейт : 2 758 Кбит/сек
Номинальный битрейт : 3 000 Кбит/сек
Максимальный битрейт : 3 000 Кбит/сек
Ширина : 1 280 пикселей
Высота : 536 пикселей
Соотношение сторон : 2, 40: 1
Режим частоты кадров : Постоянный
Частота кадров : 23, 976 (24000/1001) кадра/сек
Стандарт вещания : Component
Цветовое пространство : YUV
Субдискретизация насыщенности : 4: 2: 0
Битовая глубина : 8 бит
Тип развёртки : Прогрессивная
Бит/(Пиксели*Кадры) : 0.168
Размер потока : 2, 82 Гбайт (88%)
Библиотека кодирования : x264 core 155
Настройки программы : cabac=1/ref=4/deblock=1: 0: 0/analyse=0x3: 0x3/me=dia/subme=1/psy=1/psy_rd=1.00: 0.00/mixed_ref=0/me_range=16/chroma_me=1/trellis=0/8x8dct=1/cqm=1/deadzone=21, 11/fast_pskip=1/chroma_qp_offset=0/threads=17/lookahead_threads=2/sliced_threads=0/slices=1/nr=0/decimate=1/interlaced=0/minigop=0/stitchable=1/constrained_intra=0/bframes=2/b_pyramid=0/b_adapt=0/b_bias=0/direct=1/weightb=1/open_gop=1/weightp=0/keyint=240/keyint_min=23/scenecut=40/intra_refresh=0/rc_lookahead=0/rc=cbr/mbtree=0/bitrate=3000/ratetol=1.0/qcomp=0.60/qpmin=1/qpmax=69/qpstep=4/vbv_maxrate=3000/vbv_bufsize=3000/nal_hrd=vbr/filler=0/ip_ratio=1.40/pb_ratio=1.30/aq=1: 1.00
Default : Да
Forced : Нет
Цветовой диапазон : Limited
Основные цвета : BT.709
Характеристики трансфера : BT.709
Коэффициенты матрицы : BT.709
Аудио
Идентификатор : 2
Формат : AAC Main
Формат/Информация : Advanced Audio Codec
Идентификатор кодека : A_AAC-1
Продолжительность : 2 ч. 26 м.
Битрейт : 384 Кбит/сек
Каналы : 2 канала
Channel layout : L R
Частота : 48, 0 КГц
Частота кадров : 46, 875 кадров/сек (1024 SPF)
Метод сжатия : С потерями
Размер потока : 399 Мбайт (12%)
Default : Да
Forced : Нет

Скриншоты для ознакомления



Все одноименные релизы в Клубе
Время раздачи: 24/7 (мультитрекерная раздача)

Другие торренты по теме:

  • Сергей Самаров | Последний довод (2016) [FB2]
  • Джо Аберкромби | Последний довод королей (2016) [MP3]
  • Последний довод (2017) SATRip
  • Последний довод (2017) WEB-DL [H.264 / 1080p-LQ] (серии 1-2 из 2)
  • Александр Плетнёв | Последний довод павших, или Лепестки жёлтой хризантемы на воде (2013) [FB2]
  • Последний довод (2017) WEB-DLRip [H.264] (серии 1-2 из 2)
  • Джо Аберкромби | Последний довод королей (2017) [FB2]

  • Посетители, находящиеся в группе Гости, не могут оставлять комментарии в данной новости.