Подписывайся на наш канал в Telegram https://t.me/torrentok и получи доступ к торрентам без ограничений!

Русалка в Париже / Une sirene a Paris (2020) WEB-DLRip торрент скачать бесплатно

Русалка в Париже / Une sirene a Paris (2020) WEB-DLRipПроизводство: Франция/Entre Chien et Loup
Жанр: Фэнтези, мелодрама, комедия
Режиссер: Матиас Мальзьё
Продюсер: Себастьен Деллуа, Грегуар Мелен, Николя Бери

Актеры
Николя Дювошель, Мэрилин Лима, Романа Боринже, Чеки Карио, Росси де Пальма, Алексис Михалик, Лу Гала, Николас Уллман и др.

Описание

Он — талантливый артист с невероятной харизмой и прекрасным чувством юмора. Однако его сердце — неприступный бастион даже для самых сногсшибательных девушек Парижа. Всё изменится, когда, гуляя по ночной набережной Сены, он повстречает настоящую русалку. Теперь для музыканта не имеет значения, что любовь к этим красавицам веками губила сердца мужчин…


Возраст: 12+ (зрителям, достигшим 12 лет)
Дата мировой премьеры: 4 марта 2020
Дата российской премьеры: 28 августа 2020, Вольга
Продолжительность: 01: 38: 13
Качество видео: WEB-DLRip
Перевод: Дублированный (iTunes)
Субтитры: Русские на песни - (отдельно)
Видео: Xvid, 720х304, ~1735 Kbps
Аудио: AC3, 6 ch, 384 Kbps
General
Complete name : C: ЗагрузкиUne sirene a Paris (2020).WEB-DLRipUne sirene a Paris (2020).WEB-DLRip.avi
Format : AVI
Format/Info : Audio Video Interleave
File size : 1.46 GiB
Duration : 1 h 38 min
Overall bit rate : 2 129 kb/s
Writing application : VirtualDubMod 1.5.10.3 |www.virtualdub-fr.org|| (build 2550/release)
Copyright : MegaPeer
Video
ID : 0
Format : MPEG-4 Visual
Format profile : Advanced [email protected]
Format settings : BVOP1/Custom Matrix
Format settings, BVOP : 1
Format settings, QPel : No
Format settings, GMC : No warppoints
Format settings, Matrix : Custom
Codec ID : XVID
Codec ID/Hint : XviD
Duration : 1 h 38 min
Bit rate : 1 735 kb/s
Width : 720 pixels
Height : 304 pixels
Display aspect ratio : 2.35: 1
Frame rate : 25.000 FPS
Color space : YUV
Chroma subsampling : 4: 2: 0
Bit depth : 8 bits
Scan type : Progressive
Compression mode : Lossy
Bits/(Pixel*Frame) : 0.317
Stream size : 1.19 GiB (82%)
Writing library : XviD 69
Audio
ID : 1
Format : AC-3
Format/Info : Audio Coding 3
Commercial name : Dolby Digital
Codec ID : 2000
Duration : 1 h 38 min
Bit rate mode : Constant
Bit rate : 384 kb/s
Channel(s) : 6 channels
Channel layout : L R C LFE Ls Rs
Sampling rate : 48.0 kHz
Frame rate : 31.250 FPS (1536 SPF)
Compression mode : Lossy
Stream size : 270 MiB (18%)
Alignment : Split across interleaves
Interleave, duration : 40 ms (1.00 video frame)
Interleave, preload duratio : 500 ms
Service kind : Complete Main

Скриншоты для ознакомления



Все одноименные релизы в Клубе
Время раздачи: 24/7 (до появления первых 3-5 скачавших)

Другие торренты по теме:

  • Русалка в Париже / Une sirene a Paris (2020) WEB-DL [H.264 / 1080p-LQ]

  • Посетители, находящиеся в группе Гости, не могут оставлять комментарии в данной новости.