Подписывайся на наш канал в Telegram https://t.me/torrentok и получи доступ к торрентам без ограничений!

Аламо / The Alamo (1960) WEB-DL [H.264 / 1080p] торрент скачать бесплатно

Аламо / The Alamo (1960) WEB-DL [H.264 / 1080p]Производство: США/Productions, Alamo Company
Жанр: Драма, приключения, вестерн, военный, история
Режиссер: Джон Уэйн

Актеры
Джон Уэйн, Ричард Уидмарк, Лоуренс Харви, Фрэнки Авалон, Патрик Уэйн, Линда Кристал, Джоан О`Брайэн, Чилл Уиллс, Джозеф Каллейа, Кен Кертис

Описание

США, 1836 год. Генерал Санта Анна во главе огромной армии мексиканских повстанцев терроризирует Техас. Американское военное командование решает положить конец бесчинствам Санта Анны, но для этого необходимо собрать разрозненные силы. Чтобы замедлить продвижение противника, начальство приказывает полковнику Трэвису и небольшой группе его солдат любой ценой удержать форт Аламо, лежащий на пути мексиканцев.


Возраст: 6+ (зрителям, достигшим 6 лет)
Релиз от: KORSAR
Продолжительность: 02: 41: 57
Качество видео: WEB-DL
Перевод: Профессиональный двухголосый
Субтитры: Английские, испанские, финские, немецкие
Видео: AVC/H.264, 1920x816, ~13.9 Mbps
Аудио 1: AC3, 6 ch, 448 Kbps - Русский (DVO)
Аудио 2: AC3, 2 ch, 192 Kbps - Русский (DVO, НТВ+)
Аудио 3: AC3, 2 ch, 192 Kbps - Русский (DVO)
Аудио 4: E-AC3, 6 ch, 640 Kbps - Английский (Оригинал)Общее
Уникальный идентификатор : 193698067127277460483212424819376067795 (0x91B8E4092D66D7E5935267B9528F14D3)
Полное имя : Аламо.1960.WEB-DL.1080p.mkv
Формат : Matroska
Версия формата : Version 2
Размер файла : 17, 7 Гбайт
Продолжительность : 2 ч. 41 м.
Общий поток : 15, 6 Мбит/сек
Дата кодирования : UTC 2018-05-24 22: 05: 09
Программа кодирования : mkvmerge v5.8.0 (\'No Sleep/Pillow\') built on Sep 2 2012 15: 37: 04
Библиотека кодирования : libebml v1.2.3 + libmatroska v1.3.0
Видео
Идентификатор : 1
Формат : AVC
Формат/Информация : Advanced Video Codec
Профиль формата : [email protected]
Настройки формата : CABAC/4 Ref Frames
Параметр CABAC формата : Да
Параметр RefFrames формата : 4 кадра
Идентификатор кодека : V_MPEG4/ISO/AVC
Продолжительность : 2 ч. 41 м.
Битрейт : 13, 9 Мбит/сек
Ширина : 1920 пикселей
Высота : 816 пикселей
Соотношение сторон : 2, 35: 1
Режим частоты кадров : Постоянный
Частота кадров : 23, 976 (24000/1001) кадра/сек
Цветовое пространство : YUV
Субдискретизация насыщенности : 4: 2: 0
Битовая глубина : 8 бит
Тип развёртки : Прогрессивная
Бит/(Пиксели*Кадры) : 0.369
Размер потока : 15, 7 Гбайт (89%)
Язык : English
Default : Да
Forced : Нет
Цветовой диапазон : Limited
Основные цвета : BT.709
Характеристики трансфера : BT.709
Коэффициенты матрицы : BT.709
Аудио #1
Идентификатор : 2
Формат : AC-3
Формат/Информация : Audio Coding 3
Идентификатор кодека : A_AC3
Продолжительность : 2 ч. 41 м.
Вид битрейта : Постоянный
Битрейт : 448 Кбит/сек
Каналы : 6 каналов
Расположение каналов : Front: L C R, Side: L R, LFE
Частота : 48, 0 КГц
Частота кадров : 31, 250 кадров/сек (1536 SPF)
Битовая глубина : 16 бит
Метод сжатия : С потерями
Размер потока : 519 Мбайт (3%)
Заголовок : DVO | 5.1
Язык : Russian
По умолчанию : Да
Принудительно : Нет
Аудио #2
Идентификатор : 3
Формат : AC-3
Формат/Информация : Audio Coding 3
Идентификатор кодека : A_AC3
Продолжительность : 2 ч. 41 м.
Вид битрейта : Постоянный
Битрейт : 192 Кбит/сек
Каналы : 2 канала
Расположение каналов : Front: L R
Частота : 48, 0 КГц
Частота кадров : 31, 250 кадров/сек (1536 SPF)
Битовая глубина : 16 бит
Метод сжатия : С потерями
Размер потока : 222 Мбайт (1%)
Заголовок : DVO | НТВ+
Язык : Russian
По умолчанию : Нет
Принудительно : Нет
Аудио #3
Идентификатор : 4
Формат : AC-3
Формат/Информация : Audio Coding 3
Идентификатор кодека : A_AC3
Продолжительность : 2 ч. 41 м.
Вид битрейта : Постоянный
Битрейт : 192 Кбит/сек
Каналы : 2 канала
Расположение каналов : Front: L R
Частота : 48, 0 КГц
Частота кадров : 31, 250 кадров/сек (1536 SPF)
Битовая глубина : 16 бит
Метод сжатия : С потерями
Размер потока : 222 Мбайт (1%)
Заголовок : DVO | 2.0
Язык : Russian
По умолчанию : Нет
Принудительно : Нет
Аудио #4
Идентификатор : 5
Формат : E-AC-3
Формат/Информация : Enhanced Audio Coding 3
Идентификатор кодека : A_EAC3
Продолжительность : 2 ч. 41 м.
Вид битрейта : Постоянный
Битрейт : 640 Кбит/сек
Каналы : 6 каналов
Расположение каналов : Front: L C R, Side: L R, LFE
Частота : 48, 0 КГц
Частота кадров : 187, 500 кадров/сек (256 SPF)
Метод сжатия : С потерями
Размер потока : 741 Мбайт (4%)
Заголовок : Original
Язык : English
По умолчанию : Нет
Принудительно : Нет
Текст #1
Идентификатор : 6
Формат : UTF-8
Идентификатор кодека : S_TEXT/UTF8
Идентификатор кодека/Информация : UTF-8 Plain Text
Язык : English
По умолчанию : Нет
Принудительно : Нет
Текст #2
Идентификатор : 7
Формат : UTF-8
Идентификатор кодека : S_TEXT/UTF8
Идентификатор кодека/Информация : UTF-8 Plain Text
Заголовок : SDH
Язык : English
По умолчанию : Нет
Принудительно : Нет
Текст #3
Идентификатор : 8
Формат : UTF-8
Идентификатор кодека : S_TEXT/UTF8
Идентификатор кодека/Информация : UTF-8 Plain Text
Язык : Spanish
По умолчанию : Нет
Принудительно : Нет
Текст #4
Идентификатор : 9
Формат : UTF-8
Идентификатор кодека : S_TEXT/UTF8
Идентификатор кодека/Информация : UTF-8 Plain Text
Язык : Finnish
По умолчанию : Нет
Принудительно : Нет
Текст #5
Идентификатор : 10
Формат : UTF-8
Идентификатор кодека : S_TEXT/UTF8
Идентификатор кодека/Информация : UTF-8 Plain Text
Язык : German
По умолчанию : Нет
Принудительно : Нет
Меню
00: 00: 00.000 : en: Chapter 01
00: 19: 05.218 : en: Chapter 02
00: 33: 26.829 : en: Chapter 03
00: 55: 25.029 : en: Chapter 04
01: 16: 05.368 : en: Chapter 05
01: 36: 51.196 : en: Chapter 06
01: 53: 03.167 : en: Chapter 07
02: 09: 55.712 : en: Chapter 08
02: 25: 06.088 : en: Chapter 09

Скриншоты для ознакомления



Все одноименные релизы в Клубе
Время раздачи: 24/7 (мультитрекерная раздача)

Другие торренты по теме:

  • Залив Аламо / Alamo Bay (1985) BDRip
  • Человек из Аламо / The Man from the Alamo (1953) DVDRip [H.264] скачать через торрент бесплатно
  • Аламо / The Alamo (1960) DVDRip [H.264]
  • Форт Аламо / The Alamo (2004) WEB-DL [H.264 / 1080p]

  • Посетители, находящиеся в группе Гости, не могут оставлять комментарии в данной новости.