Подписывайся на наш канал в Telegram https://t.me/torrentok и получи доступ к торрентам без ограничений!

Мамлюк (1958) DVDRip [H.264] торрент скачать бесплатно

Мамлюк (1958) DVDRip [H.264]Производство: СССР/Грузия-фильм
Жанр: Мелодрама, приключения, военный
Режиссер: Давид Рондели

Актеры
Дато Данелия, В. Джоджуа, М. Лондаридзе, Отар Коберидзе, Акакий Хорава, Лия Элиава, Георгий Шавгулидзе, Дудухана Церодзе, Михаил Вашадзе, Эдишер Магалашвили

Описание

Грузия. Вторая половина XVIII века. Чужеземцы похищают детей, чтобы продать в рабство, сделать из них со временем верных и безжалостных воинов. Такая участь постигла Хвичу, который стал доблестным египетским мамлюком Махмудом. Однажды во время битвы воин услышал предсмертный крик на непонятном, но чем-то волнующем его языке…


Продолжительность: 01: 34: 28
Качество видео: DVDRip
Субтитры: Русские
Видео: AVC/H.264, 720х540, ~1700 kbps
Аудио: AC3, 6 ch, 448 kbps | Русский (DUB)
Общее
Уникальный идентификатор : 181559424638922794111631354579116753839 (0x889712C1272F6C1CB57C29FF222E03AF)
Полное имя : H: НАЧАЛО XVI ВЕКА – ХХI ВЕКМамлюкМамлюк. 1958.mkv
Формат : Matroska
Версия формата : Version 4/Version 2
Размер файла : 1, 42 Гбайт
Продолжительность : 1 ч. 34 м.
Общий поток : 2150 Кбит/сек
Название фильма : Release from Topmost
Дата кодирования : UTC 2020-08-17 04: 52: 31
Программа кодирования : mkvmerge v6.2.0 (\'Promised Land\') built on Apr 28 2013 12: 22: 01
Библиотека кодирования : libebml v1.3.0 + libmatroska v1.4.0
Attachment : Yes
Видео
Идентификатор : 1
Формат : AVC
Формат/Информация : Advanced Video Codec
Профиль формата : [email protected]
Параметр CABAC формата : Да
Параметр ReFrames формата : 12 кадров
Идентификатор кодека : V_MPEG4/ISO/AVC
Продолжительность : 1 ч. 34 м.
Битрейт : 1700 Кбит/сек
Ширина : 720 пикселей
Высота : 540 пикселей
Соотношение сторон : 4: 3
Режим частоты кадров : Постоянный
Частота кадров : 25, 000 кадров/сек
Цветовое пространство : YUV
Субдискретизация насыщенности : 4: 2: 0
Битовая глубина : 8 бит
Тип развёртки : Прогрессивная
Бит/(Пиксели*Кадры) : 0.175
Размер потока : 1, 10 Гбайт (77%)
Заголовок : Мамлюк. 1958/Release from Topmost/
Библиотека кодирования : x264 core 146 r2538 121396c
Настройки программы : cabac=1/ref=12/deblock=1: -3: -3/analyse=0x3: 0x113/me=umh/subme=11/psy=1/psy_rd=1.00: 0.15/mixed_ref=1/me_range=32/chroma_me=1/trellis=2/8x8dct=1/cqm=0/deadzone=21, 11/fast_pskip=0/chroma_qp_offset=-3/threads=12/lookahead_threads=2/sliced_threads=0/nr=0/decimate=0/interlaced=0/bluray_compat=0/constrained_intra=0/bframes=8/b_pyramid=2/b_adapt=2/b_bias=0/direct=1/weightb=1/open_gop=0/weightp=2/keyint=240/keyint_min=23/scenecut=40/intra_refresh=0/rc_lookahead=40/rc=2pass/mbtree=0/bitrate=1700/ratetol=1.0/qcomp=0.60/qpmin=0/qpmax=69/qpstep=4/cplxblur=20.0/qblur=0.5/vbv_maxrate=14000/vbv_bufsize=14000/nal_hrd=none/filler=0/ip_ratio=1.40/pb_ratio=1.30/aq=1: 0.90
Язык : Russian
Default : Да
Forced : Нет
Аудио
Идентификатор : 2
Формат : AC-3
Формат/Информация : Audio Coding 3
Расширение режима : CM (complete main)
Параметр Endianness формата : Big
Идентификатор кодека : A_AC3
Продолжительность : 1 ч. 34 м.
Вид битрейта : Постоянный
Битрейт : 448 Кбит/сек
Каналы : 6 каналов
Расположение каналов : Front: L C R, Side: L R, LFE
Частота : 48, 0 КГц
Битовая глубина : 16 бит
Метод сжатия : С потерями
Размер потока : 303 Мбайт (21%)
Язык : Russian
Default : Да
Forced : Нет
Текст
Идентификатор : 3
Формат : UTF-8
Идентификатор кодека : S_TEXT/UTF8
Идентификатор кодека/Информация : UTF-8 Plain Text
Язык : Russian
Default : Да
Forced : Нет

Скриншоты для ознакомления



Все одноименные релизы в Клубе
Время раздачи: 24/7 до 5 скачавших (до появления первых 3-5 скачавших)

Другие торренты по теме:


Посетители, находящиеся в группе Гости, не могут оставлять комментарии в данной новости.