Подписывайся на наш канал в Telegram https://t.me/torrentok и получи доступ к торрентам без ограничений!

Только бог простит / Only God Forgives (2012) BDRip [H.264 / 1080p-LQ] торрент скачать бесплатно

Только бог простит / Only God Forgives (2012) BDRip [H.264 / 1080p-LQ]Производство: Дания, Франция, Таиланд, США, Швеция/A Grand Elephant, Bold Films, Film i Väst
Жанр: Драма, криминал, боевик
Режиссер: Николас Виндинг Рефн

Актеры
Райан Гослинг, Кристин Скотт Томас, Витхая Пансрингарм, Гордон Браун, Яяин Рхатха Пхонгам, Том Бёрк, Джек Бун, Питчават Петчаяхон, Чарли Рюдпоканон, Ковит Ваттанакуль

Описание

Джулиан сбежал от американского правосудия и теперь руководит в Бангкоке клубом тайского бокса, который служит ему прикрытием для торговли наркотиками. Его мать, глава крупной преступной организации, приезжает из США, чтобы забрать тело своего любимого сына Билли: брата Джулиана только что убили за зверскую расправу над молодой проституткой. Охваченная яростью и жаждой мести мать требует, чтобы Джулиан нашел и покарал убийц.


Возраст: 16+ (зрителям, достигшим 16 лет)
Рейтинг MPAA: R (лицам до 17 лет обязательно присутствие взрослого)
Релиз от: SergeyAms
Продолжительность: 01: 29: 30
Качество видео: BDRip (1080p)
Перевод: Дублированный
Субтитры: Русские (форс., полные), английские (форс., полные)
Видео: AVC/H.264, 1920x1036, ~5 Mbps
Аудио #1: AC3, 6 ch, 640 Kbps - Русский (дубляж)
Аудио #2: AC3, 6 ch, 640 Kbps - Русский (AVO, А. Матвеев)
Аудио #3: AC3, 2 ch, 160 Kbps - Русский (MVO, TV1000)
Аудио #4: AC3, 6 ch, 640 Kbps - Русский (AVO, В. Назаров)
Аудио #5: DTS, 6 ch, 768 Kbps - Английский
x264 info: frame I: 904 Avg QP: 14.99 size: 226632
x264 info: frame P: 28996 Avg QP: 17.01 size: 61952
x264 info: frame B: 99004 Avg QP: 18.76 size: 13712
General
Unique ID : 296414555186373726208217717659761262201 (0xDEFF5DE53339D85C4CFB702D1B663E79)
Complete name : D: TempNNMOnly.God.Forgives.2012.1080p.mkv
Format : Matroska
Format version : Version 4/Version 2
File size : 4.92 GiB
Duration : 1h 29mn
Overall bit rate : 7 860 Kbps
Movie name : Only God Forgives BDRemux 1080p
Writing library : Lavf57.71.100
Video
ID : 1
Format : AVC
Format/Info : Advanced Video Codec
Format profile : [email protected]
Format settings, CABAC : Yes
Format settings, ReFrames : 4 frames
Codec ID : V_MPEG4/ISO/AVC
Duration : 1h 29mn
Bit rate : 5 000 Kbps
Width : 1 920 pixels
Height : 1 036 pixels
Display aspect ratio : 1.85: 1
Frame rate mode : Constant
Frame rate : 23.976 fps
Color space : YUV
Chroma subsampling : 4: 2: 0
Bit depth : 8 bits
Scan type : Progressive
Bits/(Pixel*Frame) : 0.105
Stream size : 3.04 GiB (62%)
Writing library : x264 core 157 r2935 545de2f
Encoding settings : cabac=1/ref=4/deblock=1: -2: -2/analyse=0x3: 0x113/me=umh/subme=9/psy=1/psy_rd=1.05: 0.10/mixed_ref=1/me_range=24/chroma_me=1/trellis=2/8x8dct=1/cqm=0/deadzone=21, 11/fast_pskip=0/chroma_qp_offset=-3/threads=13/lookahead_threads=1/sliced_threads=0/nr=0/decimate=0/interlaced=0/bluray_compat=0/constrained_intra=0/bframes=6/b_pyramid=2/b_adapt=2/b_bias=0/direct=1/weightb=1/open_gop=0/weightp=2/keyint=240/keyint_min=24/scenecut=40/intra_refresh=0/rc=2pass/mbtree=0/bitrate=5000/ratetol=1.0/qcomp=0.70/qpmin=3/qpmax=69/qpstep=4/cplxblur=20.0/qblur=0.5/ip_ratio=1.40/pb_ratio=1.30/aq=2: 1.00
Language : English
Default : Yes
Forced : No
Audio #1
ID : 2
Format : AC-3
Format/Info : Audio Coding 3
Mode extension : CM (complete main)
Format settings, Endianness : Big
Codec ID : A_AC3
Duration : 1h 29mn
Bit rate mode : Constant
Bit rate : 640 Kbps
Channel(s) : 6 channels
Channel positions : Front: L C R, Side: L R, LFE
Sampling rate : 48.0 KHz
Bit depth : 16 bits
Compression mode : Lossy
Stream size : 410 MiB (8%)
Title : Russian Dub
Language : Russian
Default : Yes
Forced : No
Audio #2
ID : 3
Format : AC-3
Format/Info : Audio Coding 3
Mode extension : CM (complete main)
Format settings, Endianness : Big
Codec ID : A_AC3
Duration : 1h 29mn
Bit rate mode : Constant
Bit rate : 640 Kbps
Channel(s) : 6 channels
Channel positions : Front: L C R, Side: L R, LFE
Sampling rate : 48.0 KHz
Bit depth : 16 bits
Compression mode : Lossy
Stream size : 410 MiB (8%)
Title : Russian VO А. Матвеев Doctor Joker
Language : Russian
Default : No
Forced : No
Audio #3
ID : 4
Format : AC-3
Format/Info : Audio Coding 3
Mode extension : CM (complete main)
Format settings, Endianness : Big
Codec ID : A_AC3
Duration : 1h 29mn
Bit rate mode : Constant
Bit rate : 160 Kbps
Channel(s) : 2 channels
Channel positions : Front: L R
Sampling rate : 48.0 KHz
Bit depth : 16 bits
Compression mode : Lossy
Stream size : 103 MiB (2%)
Title : Russian MVO TV1000 Action
Language : Russian
Default : No
Forced : No
Audio #4
ID : 5
Format : AC-3
Format/Info : Audio Coding 3
Mode extension : CM (complete main)
Format settings, Endianness : Big
Codec ID : A_AC3
Duration : 1h 29mn
Bit rate mode : Constant
Bit rate : 640 Kbps
Channel(s) : 6 channels
Channel positions : Front: L C R, Side: L R, LFE
Sampling rate : 48.0 KHz
Bit depth : 16 bits
Compression mode : Lossy
Stream size : 410 MiB (8%)
Title : Russian VO В. Назаров
Language : Russian
Default : No
Forced : No
Audio #5
ID : 6
Format : DTS
Format/Info : Digital Theater Systems
Mode : 16
Format settings, Endianness : Big
Codec ID : A_DTS
Duration : 1h 29mn
Bit rate mode : Constant
Bit rate : 768 Kbps
Channel(s) : 6 channels
Channel positions : Front: L C R, Side: L R, LFE
Sampling rate : 48.0 KHz
Bit depth : 16 bits
Compression mode : Lossy
Stream size : 492 MiB (10%)
Title : English Original
Language : English
Default : No
Forced : No
Text #1
ID : 7
Format : UTF-8
Codec ID : S_TEXT/UTF8
Codec ID/Info : UTF-8 Plain Text
Title : Russian forced
Language : Russian
Default : Yes
Forced : No
Text #2
ID : 8
Format : UTF-8
Codec ID : S_TEXT/UTF8
Codec ID/Info : UTF-8 Plain Text
Title : Russian full Doctor Joker
Language : Russian
Default : No
Forced : No
Text #3
ID : 9
Format : UTF-8
Codec ID : S_TEXT/UTF8
Codec ID/Info : UTF-8 Plain Text
Title : Russian full Е. Воронин
Language : Russian
Default : No
Forced : No
Text #4
ID : 10
Format : UTF-8
Codec ID : S_TEXT/UTF8
Codec ID/Info : UTF-8 Plain Text
Title : English forced
Language : English
Default : No
Forced : No
Text #5
ID : 11
Format : UTF-8
Codec ID : S_TEXT/UTF8
Codec ID/Info : UTF-8 Plain Text
Title : English full
Language : English
Default : No
Forced : No
Menu
00: 00: 00.000 : : Глава 01
00: 04: 41.614 : : Глава 02
00: 12: 49.685 : : Глава 03
00: 18: 03.957 : : Глава 04
00: 24: 05.318 : : Глава 05
00: 30: 02.133 : : Глава 06
00: 34: 38.201 : : Глава 07
00: 40: 23.838 : : Глава 08
00: 47: 00.651 : : Глава 09
00: 54: 12.999 : : Глава 10
01: 01: 15.296 : : Глава 11
01: 08: 03.079 : : Глава 12
01: 13: 08.842 : : Глава 13
01: 17: 05.495 : : Глава 14
01: 21: 07.279 : : Глава 15
01: 24: 42.494 : : Глава 16

Скриншоты для ознакомления



Все одноименные релизы в Клубе Время раздачи: 24/7 (до появления первых 3-5 скачавших)

Другие торренты по теме:

  • Только бог простит / Only God Forgives (2012) BDRemux [H.264 / 1080p]
  • Только Бог простит / Only God Forgives (2013) BDRip [H.265 / 1080p-LQ] [10-bit]
  • Только бог простит / Only God Forgives (2013) BDRip [H.264 / 1080p]

  • Посетители, находящиеся в группе Гости, не могут оставлять комментарии в данной новости.