Подписывайся на наш канал в Telegram https://t.me/torrentok и получи доступ к торрентам без ограничений!

Пацаны / The Boys (2019) WEBRip [H.264 / 1080p-LQ] (сезон 1, серии 1-8 из 8) AlexFilm, LostFilm, Кубик в Кубе торрент скачать бесплатно

Пацаны / The Boys (2019) WEBRip [H.264 / 1080p-LQ] (сезон 1, серии 1-8 из 8) AlexFilm, LostFilm, Кубик в КубеПроизводство: США/Amazon Studios, Original Film, Point Grey Pictures
Жанр: фантастика, боевик, комедия, криминал
Режиссер: Филип Сгриккиа, Дэниэл Эттиэс, Дженнифер Фанг

Актеры
Карл Урбан, Джек Куэйд, Энтони Старр, Эрин Мориарти, Доминик МакЭллигот, Джесси Ашер, Лас Алонсо, Чейс Кроуфорд, Томер Капон, Нэйтан Митчелл

Описание

Действие сериала разворачивается в мире, где существуют супергерои. Именно они являются настоящими звездами. Их все знают и обожают. Но за идеальным фасадом скрывается гораздо более мрачный мир наркотиков и секса, а большинство героев - в жизни не самые приятные люди. Для контроля за супергероями ЦРУ создает специальный отряд, неофициально известный как Пацаны, суровые члены которого всегда готовы поставить зазнавшегося героя на место самым жестоким способом.


Продолжительность: ~01: 00: 00 серия
Качество видео: WEBRip
Перевод: Многоголосый профессиональный
Субтитры: Русские, английские
Видео: AVC/H.264, 1920x816, ~8960 Kbps
Аудио #1: AC3, 6 ch, 640 Kbps - русский (MVO AlexFilm) (ненормативная лекика)
Аудио #2: AC3, 6 ch, 640 Kbps - русский (MVO LostFilm)
Аудио #3: AC3, 6 ch, 640 Kbps - русский (MVO Кубик в Кубе) (ненормативная лекика)
Аудио #4: AC3, 6 ch, 640 Kbps - английский
Общее
Уникальный идентификатор : 189102299609474386611947459330343378163 (0x8E43C733FD27306E38EB36A4AB2B1CF3)
Полное имя : F: CINEMAThe.Boys.S01.1080p.WEBRipThe.Boys.S01E01.1080p.WEBRip.mkv
Формат : Matroska
Версия формата : Version 4
Размер файла : 4, 84 Гбайт
Продолжительность : 1 ч. 0 м.
Общий поток : 11, 5 Мбит/сек
Название фильма : The Boys 1x01 - Release for Serial_M
Дата кодирования : UTC 2020-07-27 11: 41: 43
Программа кодирования : mkvmerge v48.0.0 (\'Fortress Around Your Heart\') 64-bit
Библиотека кодирования : libebml v1.4.0 + libmatroska v1.6.0
Видео
Идентификатор : 1
Формат : AVC
Формат/Информация : Advanced Video Codec
Профиль формата : [email protected]
Настройки формата : CABAC/5 Ref Frames
Параметр CABAC формата : Да
Параметр RefFrames формата : 5 кадров
Идентификатор кодека : V_MPEG4/ISO/AVC
Продолжительность : 1 ч. 0 м.
Битрейт : 8 958 Кбит/сек
Ширина : 1 920 пикселей
Высота : 816 пикселей
Соотношение сторон : 2, 35: 1
Режим частоты кадров : Постоянный
Частота кадров : 23, 976 (24000/1001) кадра/сек
Цветовое пространство : YUV
Субдискретизация насыщенности : 4: 2: 0
Битовая глубина : 8 бит
Тип развёртки : Прогрессивная
Бит/(Пиксели*Кадры) : 0.238
Размер потока : 3, 76 Гбайт (78%)
Заголовок : The Boys 1x01 - Release for Serial_M
Библиотека кодирования : x264 core 157 r2969 d4099dd
Настройки программы : cabac=1/ref=5/deblock=1: -3: -3/analyse=0x3: 0x133/me=umh/subme=10/psy=1/psy_rd=1.00: 0.00/mixed_ref=1/me_range=48/chroma_me=1/trellis=2/8x8dct=1/cqm=0/deadzone=21, 11/fast_pskip=0/chroma_qp_offset=-2/threads=24/lookahead_threads=4/sliced_threads=0/nr=0/decimate=0/interlaced=0/bluray_compat=0/constrained_intra=0/bframes=8/b_pyramid=2/b_adapt=2/b_bias=0/direct=3/weightb=1/open_gop=0/weightp=2/keyint=250/keyint_min=23/scenecut=40/intra_refresh=0/rc=crf/mbtree=0/crf=17.0/qcomp=0.60/qpmin=0/qpmax=69/qpstep=4/ip_ratio=1.30/pb_ratio=1.20/aq=3: 0.80
Язык : English
Default : Да
Forced : Нет
Аудио #1
Идентификатор : 2
Формат : AC-3
Формат/Информация : Audio Coding 3
Коммерческое название : Dolby Digital
Идентификатор кодека : A_AC3
Продолжительность : 1 ч. 0 м.
Вид битрейта : Постоянный
Битрейт : 640 Кбит/сек
Каналы : 6 каналов
Channel layout : L R C LFE Ls Rs
Частота : 48, 0 КГц
Частота кадров : 31, 250 кадров/сек (1536 SPF)
Метод сжатия : С потерями
Размер потока : 275 Мбайт (6%)
Заголовок : AlexFilm
Язык : Russian
Service kind : Complete Main
Default : Да
Forced : Нет
Аудио #2
Идентификатор : 3
Формат : AC-3
Формат/Информация : Audio Coding 3
Коммерческое название : Dolby Digital
Идентификатор кодека : A_AC3
Продолжительность : 1 ч. 0 м.
Вид битрейта : Постоянный
Битрейт : 640 Кбит/сек
Каналы : 6 каналов
Channel layout : L R C LFE Ls Rs
Частота : 48, 0 КГц
Частота кадров : 31, 250 кадров/сек (1536 SPF)
Метод сжатия : С потерями
Размер потока : 275 Мбайт (6%)
Заголовок : LostFilm
Язык : Russian
Service kind : Complete Main
Default : Нет
Forced : Нет
Аудио #3
Идентификатор : 4
Формат : AC-3
Формат/Информация : Audio Coding 3
Коммерческое название : Dolby Digital
Идентификатор кодека : A_AC3
Продолжительность : 1 ч. 0 м.
Вид битрейта : Постоянный
Битрейт : 640 Кбит/сек
Каналы : 6 каналов
Channel layout : L R C LFE Ls Rs
Частота : 48, 0 КГц
Частота кадров : 31, 250 кадров/сек (1536 SPF)
Метод сжатия : С потерями
Размер потока : 275 Мбайт (6%)
Заголовок : KvK
Язык : Russian
Service kind : Complete Main
Default : Нет
Forced : Нет
Аудио #4
Идентификатор : 5
Формат : E-AC-3
Формат/Информация : Enhanced AC-3
Коммерческое название : Dolby Digital Plus
Идентификатор кодека : A_EAC3
Продолжительность : 1 ч. 0 м.
Вид битрейта : Постоянный
Битрейт : 640 Кбит/сек
Каналы : 6 каналов
Channel layout : L R C LFE Ls Rs
Частота : 48, 0 КГц
Частота кадров : 31, 250 кадров/сек (1536 SPF)
Метод сжатия : С потерями
Размер потока : 275 Мбайт (6%)
Заголовок : English
Язык : English
Service kind : Complete Main
Default : Нет
Forced : Нет
Текст #1
Идентификатор : 6
Формат : UTF-8
Идентификатор кодека : S_TEXT/UTF8
Идентификатор кодека/Информация : UTF-8 Plain Text
Продолжительность : 57 м. 22 с.
Битрейт : 111 бит/сек
Count of elements : 848
Размер потока : 46, 8 Кбайт (0%)
Заголовок : rus-sub
Язык : Russian
Default : Нет
Forced : Нет
Текст #2
Идентификатор : 7
Формат : UTF-8
Идентификатор кодека : S_TEXT/UTF8
Идентификатор кодека/Информация : UTF-8 Plain Text
Продолжительность : 59 м. 35 с.
Битрейт : 77 бит/сек
Count of elements : 1197
Размер потока : 33, 7 Кбайт (0%)
Заголовок : SDH
Язык : English
Default : Нет
Forced : Нет
Меню
00: 00: 00.000 : en: Amazon Original
00: 00: 05.000 : en: Ratings
00: 00: 15.000 : en: Studio Logo
00: 00: 27.000 : en: Superheroes to the rescue
00: 02: 35.000 : en: A love cut short
00: 06: 39.000 : en: Meet Starlight
00: 09: 07.000 : en: Saying goodbye to Robin
00: 11: 56.000 : en: An important phone call
00: 13: 07.000 : en: Hughie wants to make things right
00: 14: 59.000 : en: A great time to be a superhero
00: 19: 11.000 : en: A-Train seems to be everywhere
00: 20: 06.000 : en: How bad do you want to be in the seven?
00: 24: 25.000 : en: Billy makes Hughie an offer
00: 28: 58.000 : en: Supes let loose
00: 31: 18.000 : en: Never let them see you cry
00: 32: 19.000 : en: Someone\'s trying to hide something
00: 34: 53.000 : en: Negotiations for a new hero
00: 36: 56.000 : en: Figure out who you are
00: 41: 26.000 : en: Hughie accepts the offer
00: 42: 42.000 : en: The first meeting of the new Seven
00: 44: 19.000 : en: Hughie does his part
00: 51: 19.000 : en: Madelyn caves on the deal
00: 52: 03.000 : en: An unexpected visitor
00: 57: 03.000 : en: Some bumpy turbulence
00: 58: 10.000 : en: End Credits
1. The Name of the Game/Такая игра
2. Cherry/Вишенка
3. Get Some/Получи!
4. The Female of the Species/Самка человека
5. Good for the Soul/Полезно для души
6. The Innocents/Невинные
7. The Self-Preservation Society/Общество самосохранения
8. You Found Me/Ты меня нашел
Скриншоты для ознакомления



Все одноименные релизы в Клубе
Время раздачи: c 5 до 19 мск (до появления первых 3-5 скачавших)

Другие торренты по теме:

  • Пацаны / The Boys (2019) WEBRip [H.264 / 720р-LQ] (сезон 1, серии 1-8 из 8) Kerob [AD]
  • Пацаны / The Boys (2019) WEB-DL [H.264 / 1080p] (сезон 1, серии 1-8 из 8) [EN / RU, EN Sub]
  • Пацаны / The Boys (2019) WEB-DLRip [H.264] (сезон 1, серии 1-8 из 8) HDrezka [PR]
  • Пацаны / The Boys (2019) WEB-DL [H.264 / 1080p] (сезон 1, серии 1-8 из 8) HDrezka
  • Пацаны / The Boys (2019) WEB-DLRip (сезон 1, серии 1-8 из 8) HDrezka
  • Пацаны / The Boys (2019) WEB-DL [H.264 / 1080p-LQ] (сезон 1, серии 1-8 из 8) Кубик в кубе

  • Посетители, находящиеся в группе Гости, не могут оставлять комментарии в данной новости.