Подписывайся на наш канал в Telegram https://t.me/torrentok и получи доступ к торрентам без ограничений!

Ты моя Родина / Моя Родина - это ты / Vatanim Sensin (2017) HDTVRip [H.264 / 720p-LQ] (сезон 2, серии 1-28 из 28) turok1990 [PR] торрент скачать бесплатно

Ты моя Родина / Моя Родина - это ты / Vatanim Sensin (2017) HDTVRip [H.264 / 720p-LQ] (сезон 2, серии 1-28 из 28) turok1990 [PR]Производство: Турция/O3 Turkey Medya
Жанр: драма, мелодрама, военный, история
Режиссер: Бурак Арлиель, Дурул Тайлан, Ягмур Тайлан

Актеры
Халит Эргенч, Бергюзар Корель, Боран Кузум, Пынар Дениз, Мирай Данер, Джелиле Тойон Уйсал, Фатих Артман, Онур Сайлак, Окан Ялабык, Беркер Гювен и др.

Описание

Джевдет - мужественный капитан с сердцем патриота и любовью к своей родине. Азизе — его жена и мать семейства, заботящаяся одна о троих детях в военное время в отсутствии мужа. У них с Джевдетом две дочери - Йылдыз и Хилаль, и сын Али Кемаль. К тому же, с ними живет и свекровь, которая относится к ней, как дочери. Неожиданно приходит весть, что греки оккупируют Измир, и с того момента изменится вся их жизнь. Не только над страной, но и над нашими героями нависли черные тучи. Есть у них и невидимые враги. Близкий друг Джевдета, капитан Тевфик. Он безумно завидует Джевдету, с детства влюблен в его жену. Тевфику нечего терять, ничто ему не дорого, поэтому он сделает всё, чтобы разлучить Джевдета и Азизе.


Продолжительность: ~02: 30: 00 серия
Качество видео: HDTVRip
Перевод: Одноголосый любительский (turok1990)
Видео: AVC/H.264, 1280x720 (16: 9), ~1025 kbps
Аудио: AAC, 2 ch, 175 kbps
General
Unique ID : 147988412911899923645070335548760835893 (0x6F558815F34FC4D1A75451DE7BCCC735)
Complete name : D: Rodina.s02.HDTV720pRodina.s02.e01.HDTV720p.mkv
Format : Matroska
Format version : Version 4
File size : 1.30 GiB
Duration : 2 h 31 min
Overall bit rate : 1 225 kb/s
Encoded date : UTC 2020-08-28 17: 40: 01
Writing application : mkvmerge v47.0.0 (\'Black Flag\') 64-bit
Writing library : libebml v1.3.10 + libmatroska v1.5.2
Video
ID : 1
Format : AVC
Format/Info : Advanced Video Codec
Format profile : [email protected]
Format settings : CABAC/4 Ref Frames
Format settings, CABAC : Yes
Format settings, Reference fra : 4 frames
Codec ID : V_MPEG4/ISO/AVC
Duration : 2 h 31 min
Bit rate : 1 024 kb/s
Width : 1 280 pixels
Height : 720 pixels
Display aspect ratio : 16: 9
Frame rate mode : Constant
Frame rate : 25.000 FPS
Color space : YUV
Chroma subsampling : 4: 2: 0
Bit depth : 8 bits
Scan type : Progressive
Bits/(Pixel*Frame) : 0.044
Stream size : 1.11 GiB (85%)
Writing library : x264 core 146
Encoding settings : cabac=1/ref=2/deblock=1: 0: 0/analyse=0x3: 0x113/me=hex/subme=6/psy=1/psy_rd=1.00: 0.00/mixed_ref=1/me_range=16/chroma_me=1/trellis=1/8x8dct=1/cqm=0/deadzone=21, 11/fast_pskip=1/chroma_qp_offset=-2/threads=36/lookahead_threads=5/sliced_threads=0/nr=0/decimate=1/interlaced=0/bluray_compat=0/constrained_intra=0/bframes=3/b_pyramid=2/b_adapt=1/b_bias=0/direct=1/weightb=1/open_gop=0/weightp=1/keyint=50/keyint_min=5/scenecut=40/intra_refresh=0/rc_lookahead=30/rc=2pass/mbtree=1/bitrate=1024/ratetol=97.5/qcomp=0.60/qpmin=0/qpmax=69/qpstep=4/cplxblur=20.0/qblur=0.5/ip_ratio=1.40/aq=1: 1.00
Default : Yes
Forced : No
Audio
ID : 2
Format : AAC LC
Format/Info : Advanced Audio Codec Low Complexity
Codec ID : A_AAC-2
Duration : 2 h 31 min
Bit rate : 175 kb/s
Channel(s) : 2 channels
Channel layout : L R
Sampling rate : 44.1 kHz
Frame rate : 43.066 FPS (1024 SPF)
Compression mode : Lossy
Delay relative to video : -80 ms
Stream size : 191 MiB (14%)
Default : Yes
Forced : No

Скриншоты для ознакомления



Все одноименные релизы в Клубе
Время раздачи: с 11: 00 до 3: 00 (до появления первых 3-5 скачавших)

Другие торренты по теме:

  • Ты моя Родина / Моя Родина - это ты / Vatanim Sensin (2016) HDTV [H.264 / 720p-LQ] (сезон 1, серии 1-31 из 31) turok1990 [PR]
  • С чего начинается Родина (2014) SATRip (серии 1-2 из 8) (обновляемая) скачать через торрент бесплатно
  • С чего начинается Родина (2014) HDTV [H.264 / 1080i-LQ] (серии 1-2 из 8) (обновляемая)
  • С чего начинается Родина (2014) HDTVRip (серии 1-2 из 8) (обновляемая)
  • С чего начинается Родина (2014) SATRip [H.264] (Сезон 1, серия 1-4 из 8) (Обновляемая) скачать через торрент бесплатно
  • С чего начинается Родина (2014) HDTVRip [H.264 / 720p-LQ] (серии 1-2 из 8) (обновляемая) скачать через торрент бесплатно
  • Родина / Homeland (2014) WEB-DLRip (сезон 4, серии 1 из 12) Пифагор (Обновляемая) скачать через торрент бесплатно
  • Родина / Чужой среди своих / Homeland (2014) WEB-DL [H.264 / 720p-LQ] (сезон 4, серии 01-02 из 12) (Пифагор) (обновляемая)

  • Посетители, находящиеся в группе Гости, не могут оставлять комментарии в данной новости.