Подписывайся на наш канал в Telegram https://t.me/torrentok и получи доступ к торрентам без ограничений!

Бог грома / Mortal (2020) BDRip [H.264 / 720p] торрент скачать бесплатно

Бог грома / Mortal (2020) BDRip [H.264 / 720p]Производство: Норвегия, США, Великобритания/42, Automatik Entertainment, Eldorado Film
Жанр: Фэнтези, боевик, приключения
Режиссер: Андре Овредал
Продюсер: Рори Аиткен, Джон Эйнар Хаген, Брайан Кэвэна-Джонс

Актеры
Нат Вулф, Приянка Бозе, Ибен М. Акерлие, Артур Хакалахти, Оддрун Валестранд, Равдип Сингх Баджва, Аня Нова, Суннива Линд Ховерстад, Пер Фриш, Нико Русаков

Описание

Повелевать стихией, обращать в пепел прикосновением и заставлять всё живое трепетать от страха — удел языческих богов. Но что произойдет, когда планета столкнется с одним из них во плоти? Ведь этот древний Бог всего лишь человек.


Возраст: 16+ (зрителям, достигшим 16 лет)
Дата мировой премьеры: 28 февраля 2020
Цифровой релиз: 2 июня 2020, Вольга
Релиз от: selezen
Продолжительность: 01: 40: 20
Качество видео: BDRip
Перевод: Дублированный (iTunes)
Субтитры: Русские (Full, SDH), Английские
Видео: AVC/H.264, 1280x538, ~3198 Kbps
Аудио 1: AC3, 6 ch, 384 Kbps - Русский (DUB, iTunes)
Аудио 2: AC3, 6 ch, 640 Kbps - Французский
General
Unique ID : 307694911893044070003330104075610862776 (0xE77BE26BA54212F5BF2E2B50EF9DB4B8)
Complete name : D: Video111Mortal.2020.BDRip.720p.seleZen.mkv
Format : Matroska
Format version : Version 4
File size : 2.96 GiB
Duration : 1 h 40 min
Overall bit rate : 4 224 kb/s
Movie name : Mortal 2020 from селезень
Encoded date : UTC 2020-08-30 10: 12: 33
Writing application : mkvmerge v40.0.0 (\'Old Town Road + Pony\') 64-bit
Writing library : libebml v1.3.9 + libmatroska v1.5.2
Video
ID : 1
Format : AVC
Format/Info : Advanced Video Codec
Format profile : [email protected]
Format settings : CABAC/12 Ref Frames
Format settings, CABAC : Yes
Format settings, Reference : 12 frames
Codec ID : V_MPEG4/ISO/AVC
Duration : 1 h 40 min
Bit rate : 3 198 kb/s
Width : 1 280 pixels
Height : 538 pixels
Display aspect ratio : 2.40: 1
Frame rate mode : Constant
Frame rate : 25.000 FPS
Color space : YUV
Chroma subsampling : 4: 2: 0
Bit depth : 8 bits
Scan type : Progressive
Bits/(Pixel*Frame) : 0.186
Stream size : 2.24 GiB (76%)
Title : Encoded by seleZen
Writing library : x264 core 148 r2705kMod 3f5ed56
Encoding settings : cabac=1/ref=12/deblock=1: -2: -2/analyse=0x3: 0x133/me=umh/subme=10/psy=1/fade_compensate=0.00/psy_rd=1.00: 0.00/mixed_ref=1/me_range=32/chroma_me=1/trellis=2/8x8dct=1/cqm=0/deadzone=21, 11/fast_pskip=0/chroma_qp_offset=-2/threads=17/lookahead_threads=2/sliced_threads=0/nr=0/decimate=0/interlaced=0/bluray_compat=0/constrained_intra=0/fgo=0/bframes=9/b_pyramid=2/b_adapt=2/b_bias=0/direct=1/weightb=1/open_gop=0/weightp=2/keyint=250/keyint_min=25/scenecut=40/intra_refresh=0/rc_lookahead=50/rc=crf/mbtree=0/crf=16.8000/qcomp=0.60/qpmin=0/qpmax=51/qpstep=4/vbv_maxrate=50000/vbv_bufsize=62500/crf_max=0.0/nal_hrd=none/filler=0/ip_ratio=1.40/pb_ratio=1.30/aq=3: 0.80
Language : English
Default : Yes
Forced : No
Audio #1
ID : 2
Format : AC-3
Format/Info : Audio Coding 3
Commercial name : Dolby Digital
Codec ID : A_AC3
Duration : 1 h 40 min
Bit rate mode : Constant
Bit rate : 384 kb/s
Channel(s) : 6 channels
Channel layout : L R C LFE Ls Rs
Sampling rate : 48.0 kHz
Frame rate : 31.250 FPS (1536 SPF)
Compression mode : Lossy
Stream size : 276 MiB (9%)
Title : iTunes
Language : Russian
Service kind : Complete Main
Default : Yes
Forced : Yes
Audio #2
ID : 3
Format : AC-3
Format/Info : Audio Coding 3
Commercial name : Dolby Digital
Codec ID : A_AC3
Duration : 1 h 40 min
Bit rate mode : Constant
Bit rate : 640 kb/s
Channel(s) : 6 channels
Channel layout : L R C LFE Ls Rs
Sampling rate : 48.0 kHz
Frame rate : 31.250 FPS (1536 SPF)
Compression mode : Lossy
Stream size : 459 MiB (15%)
Title : Original
Language : French
Service kind : Complete Main
Default : No
Forced : No
Text #1
ID : 4
Format : UTF-8
Codec ID : S_TEXT/UTF8
Codec ID/Info : UTF-8 Plain Text
Duration : 1 h 32 min
Bit rate : 50 b/s
Count of elements : 540
Stream size : 34.1 KiB (0%)
Title : Full
Language : Russian
Default : No
Forced : No
Text #2
ID : 5
Format : UTF-8
Codec ID : S_TEXT/UTF8
Codec ID/Info : UTF-8 Plain Text
Duration : 1 h 33 min
Bit rate : 61 b/s
Count of elements : 735
Stream size : 41.8 KiB (0%)
Title : SDH
Language : Russian
Default : No
Forced : No
Text #3
ID : 6
Format : UTF-8
Codec ID : S_TEXT/UTF8
Codec ID/Info : UTF-8 Plain Text
Duration : 1 h 25 min
Bit rate : 30 b/s
Count of elements : 528
Stream size : 18.8 KiB (0%)
Language : English
Default : No
Forced : No
Menu
00: 00: 00.000 : en: 00: 00: 00.000
00: 11: 06.360 : en: 00: 11: 06.360
00: 27: 39.200 : en: 00: 27: 39.200
00: 41: 14.200 : en: 00: 41: 14.200
00: 49: 10.280 : en: 00: 49: 10.280
01: 06: 59.440 : en: 01: 06: 59.440
01: 16: 53.200 : en: 01: 16: 53.200
01: 33: 44.320 : en: 01: 33: 44.320

Скриншоты для ознакомления



Все одноименные релизы в Клубе
Время раздачи: 24/7 (мультитрекер)

Другие торренты по теме:

  • Бог грома / Mortal (2020) WEB-DLRip [MVO] [AD]
  • Бог грома / Mortal (2020) WEB-DLRip [H.264 / 1080p-LQ] [MVO] [AD]
  • Бог грома / Mortal (2020) WEB-DL [H.264 / 1080p-LQ]
  • Бог грома / Mortal (2020) WEB-DLRip
  • Бог грома / Mortal (2020) WEB-DL [1080p] ATV3
  • Бог грома / Mortal (2020) WEB-DL [H.264 / 1080p-LQ]
  • Бог грома / Mortal (2020) WEB-DL [H.264 / 720p-LQ]
  • Бог грома / Mortal (2020) BDRip [H.264 / 1080p]

  • Посетители, находящиеся в группе Гости, не могут оставлять комментарии в данной новости.