Подписывайся на наш канал в Telegram https://t.me/torrentok и получи доступ к торрентам без ограничений!

В ожидании варваров / Waiting for the Barbarians (2019) BDRemux [H.264 / 1080p] торрент скачать бесплатно

В ожидании варваров / Waiting for the Barbarians (2019) BDRemux [H.264 / 1080p]Производство: Италия, США, Iervolino Entertainment, Ithaca Pictures
Жанр: Драма
Режиссер: Сиро Герра
Продюсер: Моника Бакарди, Майкл Фицджералд, Андреа Иерволино

Актеры
Марк Райлэнс, Джонни Депп, Роберт Паттинсон, Гана Баярсайкан, Грета Скакки, Давид Денсик, Сэм Рид, Гарри Меллинг, Билл Милнер, Далхсурен Гурсэд

Описание

До правящей верхушки Империи доходят слухи, что местные племена, которых имперцы называют варварами, готовят восстание. В пограничный город-крепость на южной окраине прибывает полковник Джолл, который допрашивает заключенных, безжалостно пытает и убивает пленных туземцев. Жестокость полковника толкает магистрата города, человека от природы кроткого и деликатного, к бунту против законов Империи. Последней каплей становится гибель девушки, к которой магистрат питал нежные чувства…


Возраст: 18+ (зрителям, достигшим 18 лет. запрещено для детей)
Премьера в Росcии: 6 августа 2020, Парадиз
Премьера в мире: 6 сентября 2019, ...
Релиз от: selezen
Продолжительность: 01: 53: 25
Качество видео: BDRemux
Перевод: Дублированный (iTunes)
Субтитры: Русские (Forced, Full), Английские
Видео: AVC/H.264, 1920x1080, ~34.2 Mbps
Аудио #1: AC3, 6 ch, 384 kbps - Русский
Аудио #2: DTS-HD MA, , 6 ch, 2454 kbps - Английский
General
Unique ID : 258697226366132070773727659949226987171 (0xC29F4602B5AA6351E5609232DBA80EA3)
Complete name : D: Video111Waiting.for.the.Barbarians.2019.BDREMUX.1080p.seleZen.mkv
Format : Matroska
Format version : Version 4
File size : 29.4 GiB
Duration : 1 h 53 min
Overall bit rate mode : Variable
Overall bit rate : 37.0 Mb/s
Movie name : Waiting for the Barbarians 2019 from селезень
Encoded date : UTC 2020-08-29 23: 08: 43
Writing application : mkvmerge v40.0.0 (\'Old Town Road + Pony\') 64-bit
Writing library : libebml v1.3.9 + libmatroska v1.5.2
Video
ID : 1
Format : AVC
Format/Info : Advanced Video Codec
Format profile : [email protected]
Format settings : CABAC/2 Ref Frames
Format settings, CABAC : Yes
Format settings, Reference : 2 frames
Format settings, GOP : M=1, N=10
Codec ID : V_MPEG4/ISO/AVC
Duration : 1 h 53 min
Bit rate mode : Variable
Bit rate : 34.2 Mb/s
Width : 1 920 pixels
Height : 1 080 pixels
Display aspect ratio : 16: 9
Frame rate mode : Constant
Frame rate : 23.976 (24000/1001) FPS
Color space : YUV
Chroma subsampling : 4: 2: 0
Bit depth : 8 bits
Scan type : Progressive
Bits/(Pixel*Frame) : 0.687
Stream size : 27.1 GiB (92%)
Language : French
Default : Yes
Forced : No
Audio #1
ID : 2
Format : AC-3
Format/Info : Audio Coding 3
Commercial name : Dolby Digital
Codec ID : A_AC3
Duration : 1 h 53 min
Bit rate mode : Constant
Bit rate : 384 kb/s
Channel(s) : 6 channels
Channel layout : L R C LFE Ls Rs
Sampling rate : 48.0 kHz
Frame rate : 31.250 FPS (1536 SPF)
Compression mode : Lossy
Stream size : 312 MiB (1%)
Title : iTunes
Language : Russian
Service kind : Complete Main
Default : Yes
Forced : Yes
Audio #2
ID : 3
Format : DTS XLL
Format/Info : Digital Theater Systems
Commercial name : DTS-HD Master Audio
Codec ID : A_DTS
Duration : 1 h 53 min
Bit rate mode : Variable
Bit rate : 2 454 kb/s
Channel(s) : 6 channels
Channel layout : C L R Ls Rs LFE
Sampling rate : 48.0 kHz
Frame rate : 93.750 FPS (512 SPF)
Bit depth : 24 bits
Compression mode : Lossless
Stream size : 1.95 GiB (7%)
Title : Original
Language : English
Default : No
Forced : No
Text #1
ID : 4
Format : UTF-8
Codec ID : S_TEXT/UTF8
Codec ID/Info : UTF-8 Plain Text
Duration : 1 h 32 min
Bit rate : 0 b/s
Count of elements : 4
Stream size : 111 Bytes (0%)
Title : Forced
Language : Russian
Default : Yes
Forced : Yes
Text #2
ID : 5
Format : UTF-8
Codec ID : S_TEXT/UTF8
Codec ID/Info : UTF-8 Plain Text
Duration : 1 h 48 min
Bit rate : 47 b/s
Count of elements : 856
Stream size : 37.8 KiB (0%)
Title : Full
Language : Russian
Default : No
Forced : No
Text #3
ID : 6
Format : UTF-8
Codec ID : S_TEXT/UTF8
Codec ID/Info : UTF-8 Plain Text
Duration : 1 h 52 min
Bit rate : 31 b/s
Count of elements : 1037
Stream size : 25.6 KiB (0%)
Language : English
Default : No
Forced : No
Menu
00: 00: 00.000 : en: 00: 00: 00.000
00: 08: 23.670 : en: 00: 08: 23.670
00: 17: 46.440 : en: 00: 17: 46.440
00: 29: 12.000 : en: 00: 29: 12.000
00: 38: 37.440 : en: 00: 38: 37.440
00: 46: 11.769 : en: 00: 46: 11.769
00: 57: 13.221 : en: 00: 57: 13.221
01: 04: 04.299 : en: 01: 04: 04.299
01: 13: 22.982 : en: 01: 13: 22.982
01: 19: 39.942 : en: 01: 19: 39.942
01: 30: 58.620 : en: 01: 30: 58.620
01: 40: 57.051 : en: 01: 40: 57.051

Венецианский кинофестиваль, 2019 год
Победитель (1):
Приз всемирной католической ассоциации по коммуникациям - особое упоминание
Номинации (1):
Золотой лев

Скриншоты для ознакомления



Все одноименные релизы в Клубе
Время раздачи: 24/7 (мультитрекер)

Другие торренты по теме:

  • В ожидании варваров / Waiting for the Barbarians (2019) WEB-DL [H.264 / 1080p] [MVO]
  • В ожидании варваров / Waiting for the Barbarians (2019) BDRip [H.264 / 1080p] [PR]
  • В ожидании варваров / Waiting for the Barbarians (2019) BDRip [H.264 / 1080p]
  • В ожидании варваров / Waiting for the Barbarians (2019) BDRip [H.264 / 720p]

  • Посетители, находящиеся в группе Гости, не могут оставлять комментарии в данной новости.