Подписывайся на наш канал в Telegram https://t.me/torrentok и получи доступ к торрентам без ограничений!

Под черной маской / Szegeny gazdagok (1959) DVDRip [H.264] торрент скачать бесплатно

Под черной маской / Szegeny gazdagok (1959) DVDRip [H.264]Производство: Венгрия/Hunnia Filmstúdió
Жанр: Приключения
Режиссер: Фридьеш Бан

Актеры
Дьюла Бенкё, Марианна Кренчеи, Маргит Бара, Йожеф Ланг, Габор Мади Сабо, Шандор Деак, Иштван Эгри, Вера Фараго, Ила Лот, Енё Хорват

Описание

В основу сюжета положена романтическая история любви, развивающаяся на фоне борьбы венгерских крестьян с шайкой разбойников, возглавляемой человеком в маске.
По роману Мора Йокаи (Mór Jókai) Бедные богачи.


Релиз от: Охрана (NNMCLUB)
Продолжительность: 01: 30: 09
Качество видео: DVDRip
Перевод: Дублированный, киностудия Мосфильм
Субтитры: Отсутствуют
Видео: AVC/H.264, 720x400, ~2095 Kbps
Аудио 1: AC3, 2 ch, 192 Kbps, 48.0 kHz – Русский
Аудио 2: AC3, 2 ch, 192 Kbps, 48.0 kHz – Венгерский
Общее
Уникальный идентификатор : 235420660677381919576229131856462115488 (0xB11C5EB7D5C3405AB20BCE7F958672A0)
Полное имя : D: DownloadsПод черной маской. 1959. NNMCLUB.mkv
Формат : Matroska
Версия формата : Version 4/Version 2
Размер файла : 1, 56 Гбайт
Продолжительность : 1 ч. 30 м.
Общий поток : 2481 Кбит/сек
Дата кодирования : UTC 2020-08-30 04: 07: 56
Программа кодирования : mkvmerge v7.9.0 (\'Birds\') 64bit
Библиотека кодирования : libebml v1.3.1 + libmatroska v1.4.2
Видео
Идентификатор : 1
Формат : AVC
Формат/Информация : Advanced Video Codec
Профиль формата : [email protected]
Настройки формата : CABAC/9 Ref Frames
Параметр CABAC формата : Да
Параметр RefFrames формата : 9 кадров
Идентификатор кодека : V_MPEG4/ISO/AVC
Продолжительность : 1 ч. 30 м.
Битрейт : 2095 Кбит/сек
Ширина : 720 пикселей
Высота : 400 пикселей
Соотношение сторон : 16: 9
Режим частоты кадров : Постоянный
Частота кадров : 25, 000 кадров/сек
Цветовое пространство : YUV
Субдискретизация насыщенности : 4: 2: 0
Битовая глубина : 8 бит
Тип развёртки : Прогрессивная
Бит/(Пиксели*Кадры) : 0.291
Размер потока : 1, 32 Гбайт (84%)
Заголовок : Szegény gazdagok
Библиотека кодирования : x264 core 146 r2538 121396c
Настройки программы : cabac=1/ref=9/deblock=1: -1: -1/analyse=0x3: 0x113/me=umh/subme=10/psy=1/psy_rd=1.00: 0.10/mixed_ref=1/me_range=32/chroma_me=1/trellis=2/8x8dct=1/cqm=0/deadzone=21, 11/fast_pskip=0/chroma_qp_offset=-3/threads=6/lookahead_threads=1/sliced_threads=0/nr=0/decimate=0/interlaced=0/bluray_compat=0/constrained_intra=0/bframes=8/b_pyramid=2/b_adapt=2/b_bias=0/direct=3/weightb=1/open_gop=0/weightp=2/keyint=250/keyint_min=25/scenecut=40/intra_refresh=0/rc_lookahead=60/rc=2pass/mbtree=1/bitrate=2095/ratetol=1.0/qcomp=0.60/qpmin=0/qpmax=69/qpstep=4/cplxblur=20.0/qblur=0.5/vbv_maxrate=14000/vbv_bufsize=14000/nal_hrd=none/filler=0/ip_ratio=1.40/aq=1: 1.00
Язык : Hungarian
Default : Да
Forced : Нет
Аудио #1
Идентификатор : 2
Формат : AC-3
Формат/Информация : Audio Coding 3
Идентификатор кодека : A_AC3
Продолжительность : 1 ч. 30 м.
Вид битрейта : Постоянный
Битрейт : 192 Кбит/сек
Каналы : 2 канала
Расположение каналов : Front: L R
Частота : 48, 0 КГц
Частота кадров : 31, 250 кадров/сек (1536 SPF)
Битовая глубина : 16 бит
Метод сжатия : С потерями
Размер потока : 124 Мбайт (8%)
Заголовок : Дублированный, киностудия Мосфильм
Язык : Russian
ServiceKind/String : Complete Main
Default : Да
Forced : Нет
Аудио #2
Идентификатор : 3
Формат : AC-3
Формат/Информация : Audio Coding 3
Идентификатор кодека : A_AC3
Продолжительность : 1 ч. 30 м.
Вид битрейта : Постоянный
Битрейт : 192 Кбит/сек
Каналы : 2 канала
Расположение каналов : Front: L R
Частота : 48, 0 КГц
Частота кадров : 31, 250 кадров/сек (1536 SPF)
Битовая глубина : 16 бит
Метод сжатия : С потерями
Размер потока : 124 Мбайт (8%)
Заголовок : Венгерский
Язык : Hungarian
ServiceKind/String : Complete Main
Default : Нет
Forced : Нет

Скриншоты для ознакомления




Все одноименные релизы в Клубе
Время раздачи: с 13: 00 до 01: 00 МСК, выходные круглосуточно (до появления первых 3-5 скачавших)

Другие торренты по теме:

  • BBC. Horizon: Поглощенные черной дырой / Swallowed By A Black Hole (2013) HDTVRip [H.264 / 720p] скачать через торрент бесплатно
  • Black Lagoon | Пираты «Черной лагуны» | Чёрная лагуна [2006, TV + Sp, 24 + 7 эп.] BDRip 1080p Hi10P raw + rus
  • Восход «Черной луны» / Black Moon Rising (1986) BDRip [H.264] скачать через торрент бесплатно
  • Дмитрий Ольдерогге (отв. ред.) | Истории Черной Земли. Сказки и легенды Анголы (1975) [DJVU] скачать через торрент бесплатно
  • Александр Ковалевский | Дело о черной вдове. Записки следователя [сборник] (2015) [FB2] скачать через торрент бесплатно
  • Дарья Донцова | Бермудский треугольник черной вдовы (2015) [FB2] скачать через торрент бесплатно
  • Анар Мамедов | Депрессия. Как выбраться из черной дыры (2016) [MP3]
  • Нил Деграсс Тайсон | Смерть в черной дыре и другие мелкие космические неприятности. От зарождения жизни до теории относительности и физики элементарных частиц (2016) [FB2, DOCX, PDF]

  • Посетители, находящиеся в группе Гости, не могут оставлять комментарии в данной новости.