Подписывайся на наш канал в Telegram https://t.me/torrentok и получи доступ к торрентам без ограничений!

Metallica & San Francisco Symphony - S&M2 (2020) BDRemux [H.264 / 1080p] торрент скачать бесплатно

Metallica & San Francisco Symphony - S&M2 (2020) BDRemux [H.264 / 1080p]Производство: США/EMI
Жанр: хэви-метал, трэш-метал, симфонический метал, хард-рок

Описание

Концерты METALLICA с Симфоническим оркестром Сан-Франциско, состоявшиеся 6 и 8 сентября 2019 года, стали историческими во многих отношениях. Они стали первыми выступлениями в только что открытом зале “Chase Center”, первыми совместными выступлениями группы и оркестра с 1999 года, и на них впервые можно было услышать симфонические версии песен, увидевших свет после выхода первого альбома SM.
Аншлаговые концерты собрали, в общей сложности, 40 тыс. зрителей, которые приехали из почти 70 стран. Они также получили восторженные отклики в таких престижных изданиях, как Rolling Stone, Variety и Consequence Of Sound. А 28 августа эти впечатления можно будет пережить еще раз – свет увидит концертный релиз под названием SM². Он будет доступен во всевозможных форматах – четверной винил, двойнойCD, DVD, Blu-ray, цифровая версия, а также лимитированный подарочный бокс, в который войдут четыре виниловых пластинки, два CD, Blu-ray, нотная партитура, гитарные медиаторы, постер и многое другое. На сайте Metallica.com будет эксклюзивно продаваться супер-подарочный бокс-сет, в который, помимо всего содержимого обычного бокса, вложены настоящие партитуры, по которым оркестранты играли на концертах, подписанные от руки всеми четырьмя участниками группы. Ответственность за релиз взял на себя собственный лейбл музыкантов Blackened Recordings.
Продолжительность: 02: 28: 48
Качество видео: BDRemux 1080p
Субтитры: отсутствуют
Видео: AVC/H.264, 1920x1080, ~29.9 mbps
Аудио: DTS-HD MA, 6 ch, 4917 kbps, Английский
Диск на Blu-ray.com
Общее
Уникальный идентификатор : 194922986303813419949935722617957832492 (0x92A4CD36C8BDCEFCA5AE68B7B640D72C)
Полное имя : F: CINEMAMetallica..San.Francisco.Symphony.2020.BDRemux.mkv
Формат : Matroska
Версия формата : Version 4
Размер файла : 36, 2 Гбайт
Продолжительность : 2 ч. 28 м.
Режим общего битрейта : Переменный
Общий поток : 34, 9 Мбит/сек
Название фильма : Metallica San Francisco Symphony - SM2
Дата кодирования : UTC 2020-08-30 02: 45: 42
Программа кодирования : mkvmerge v8.2.0 (\'World of Adventure\') 64bit
Библиотека кодирования : libebml v1.3.1 + libmatroska v1.4.2
Видео
Идентификатор : 1
Формат : AVC
Формат/Информация : Advanced Video Codec
Профиль формата : [email protected]
Настройки формата : CABAC/3 Ref Frames
Параметр CABAC формата : Да
Параметр RefFrames формата : 3 кадра
Идентификатор кодека : V_MPEG4/ISO/AVC
Продолжительность : 2 ч. 28 м.
Вид битрейта : Переменный
Битрейт : 29, 9 Мбит/сек
Максимальный битрейт : 37, 5 Мбит/сек
Ширина : 1 920 пикселей
Высота : 1 080 пикселей
Соотношение сторон : 16: 9
Режим частоты кадров : Постоянный
Частота кадров : 23, 976 (24000/1001) кадра/сек
Стандарт вещания : NTSC
Цветовое пространство : YUV
Субдискретизация насыщенности : 4: 2: 0
Битовая глубина : 8 бит
Тип развёртки : Прогрессивная
Бит/(Пиксели*Кадры) : 0.602
Размер потока : 31, 1 Гбайт (86%)
Заголовок : Metallica San Francisco Symphony - SM2
Язык : English
Default : Да
Forced : Нет
Цветовой диапазон : Limited
Основные цвета : BT.709
Характеристики трансфера : BT.709
Коэффициенты матрицы : BT.709
Аудио
Идентификатор : 2
Формат : DTS XLL
Формат/Информация : Digital Theater Systems
Коммерческое название : DTS-HD Master Audio
Идентификатор кодека : A_DTS
Продолжительность : 2 ч. 28 м.
Вид битрейта : Переменный
Битрейт : 4 917 Кбит/сек
Каналы : 6 каналов
Channel layout : C L R Ls Rs LFE
Частота : 48, 0 КГц
Частота кадров : 93, 750 кадра/сек (512 SPF)
Битовая глубина : 24 бит
Метод сжатия : Без потерь
Размер потока : 5, 11 Гбайт (14%)
Заголовок : DTS
Язык : English
Default : Да
Forced : Нет

01. Intro (features Wherever I May Roam and All Within My Hands)
02. The Ecstasy of Gold (Live)
03. The Call of Ktulu (Live)
04. For Whom the Bell Tolls (Live)
05. The Day That Never Comes (Live)
06. The Memory Remains (Live)
07. Confusion (Live)
08. Moth Into Flame (Live)
09. The Outlaw Torn (Live)
10. No Leaf Clover (Live)
11. Halo on Fire (Live)
12. Intro to Scythian Suite (Live)
13. Scythian Suite, Opus 20 II: The Enemy God And The Dance Of The Dark Spirits (Live)
14. Intro to The Iron Foundry (Live)
15. The Iron Foundry, Opus 19 (Live)
16. The Unforgiven III (Live)
17. All Within My Hands (Live)
18. (Anesthesia) - Pulling Teeth (Live)
19. Wherever I May Roam (Live)
20. One (Live)
21. Master of Puppets (Live)
22. Nothing Else Matters (Live)
23. Enter Sandman (Live)

Скриншоты для ознакомления



Все одноименные релизы в Клубе
Время раздачи: c 5 до 19 мск (до появления первых 3-5 скачавших)

Другие торренты по теме:

  • Metallica - The Night Before Concert at San Francisco’s AT&T Park (2016) WEBRip
  • Metallica - The Night Before in San Francisco, CA - February 6, 2016 (2016) Live [MP3|320 кб / с] <Thrash Metal>
  • Metallica: S&M - With The San Francisco Symphony Orchestra (1999) DVDRip [H.264]
  • Metallica & San Francisco Symphony - S&M2 (2020) Live [MP3|320 Kbps] <Heavy Metal, Classical>
  • Metallica & San Francisco Symphony - S&M2 (2020) [FLAC|Lossless|tracks] <Thrash Metal, Heavy Metal>
  • Metallica & San Francisco Symphony - S&M2 (2020) BDRip [H.264 / 1080p]

  • Посетители, находящиеся в группе Гости, не могут оставлять комментарии в данной новости.