Подписывайся на наш канал в Telegram https://t.me/torrentok и получи доступ к торрентам без ограничений!

Фитнес (2020) WEBRip [H.264 / 1080p-LQ] (сезон 4, серии 1-2 из 20) (обновляемая) торрент скачать бесплатно

Фитнес (2020) WEBRip [H.264 / 1080p-LQ] (сезон 4, серии 1-2 из 20) (обновляемая)Производство: Россия/СУПЕР продакшн, Киностудия Yellow, Black and White
Жанр: комедия
Режиссер: Антон Маслов, Кирилл Васильев

Актеры
Софья Зайка, Михаил Трухин, Татьяна Храмова, Роман Курцын, Алексей Демидов, Борис Дергачев, Марианна Шульц, Ольга Баранова, Анна Лауренская, Татьяна Сомова и др.

Описание

Ася возвращается в SUPERFIT, пройдя обучение в английской бизнес-школе. Теперь она занимает пост директора и старается соответствовать своей новой должности, но это не так просто, как ей казалось. Поэтому что ее, что сотрудников фитнес-центра, ждут глобальные перемены, которые приведут к необратимым последствиям. Также в их центр придет новая сотрудница, которая будет очень экстравагантна и эксцентрична…


Возраст: 16+ (зрителям, достигшим 16 лет)
Релиз от: Getty
Продолжительность: ~00: 25: 00 серия
Качество видео: WEBRip
Видео: AVC/H.264, 1920x1080 (16: 9), ~6385 Kbps
Аудио: AC3, 2 ch, 192 Kbps
Общее
Уникальный идентификатор : 199577416066707165923846472718221427219 (0x9625365199D14CFA896978524751C213)
Полное имя : G: Fitnes.S04.2020.WEB-DL.(1080p).GettyFitnes.s04e01.2020.WEB-DL.(1080p).Getty.mkv
Формат : Matroska
Версия формата : Version 4
Размер файла : 1, 07 Гбайт
Продолжительность : 23 м. 21 с.
Общий поток : 6 580 Кбит/сек
Название фильма : Fitnes.s04e01.2020.WEB-DL.(1080p).Getty
Дата кодирования : UTC 2020-08-29 20: 54: 28
Программа кодирования : mkvmerge v7.8.0 (\'River Man\') 32bit built on Mar 27 2015 16: 18: 02
Библиотека кодирования : libebml v1.3.1 + libmatroska v1.4.2
Видео
Идентификатор : 1
Формат : AVC
Формат/Информация : Advanced Video Codec
Профиль формата : [email protected]
Настройки формата : CABAC/4 Ref Frames
Параметр CABAC формата : Да
Параметр RefFrames формата : 4 кадра
Идентификатор кодека : V_MPEG4/ISO/AVC
Продолжительность : 23 м. 21 с.
Битрейт : 6 386 Кбит/сек
Ширина : 1 920 пикселей
Высота : 1 080 пикселей
Соотношение сторон : 16: 9
Режим частоты кадров : Постоянный
Частота кадров : 25, 000 кадров/сек
Цветовое пространство : YUV
Субдискретизация насыщенности : 4: 2: 0
Битовая глубина : 8 бит
Тип развёртки : Прогрессивная
Бит/(Пиксели*Кадры) : 0.123
Размер потока : 1, 04 Гбайт (97%)
Default : Да
Forced : Нет
Цветовой диапазон : Limited
Основные цвета : BT.709
Характеристики трансфера : BT.709
Коэффициенты матрицы : BT.709
Аудио
Идентификатор : 2
Формат : AC-3
Формат/Информация : Audio Coding 3
Коммерческое название : Dolby Digital
Идентификатор кодека : A_AC3
Продолжительность : 23 м. 21 с.
Вид битрейта : Постоянный
Битрейт : 192 Кбит/сек
Каналы : 2 канала
Channel layout : L R
Частота : 48, 0 КГц
Частота кадров : 31, 250 кадров/сек (1536 SPF)
Метод сжатия : С потерями
Размер потока : 32, 1 Мбайт (3%)
Service kind : Complete Main
Default : Да
Forced : Нет

Другие торренты по теме:

  • Фитнес (2019) WEBRip (сезон 2, серии 1-3 из 20) (обновляемая)
  • Фитнес (2019) WEBRip [H.264 / 720p-LQ] (сезон 2, серии 1-3 из 20) (обновляемая)
  • Фитнес (2020) WEBRip (сезон 4, серии 1-2 из 20) (обновляемая)

  • Посетители, находящиеся в группе Гости, не могут оставлять комментарии в данной новости.