Подписывайся на наш канал в Telegram https://t.me/torrentok и получи доступ к торрентам без ограничений!

Именно так / Точь-в-точь / Aynen Aynen (2020) HDTVRip [H.264 / 720p-LQ] (сезон 4, серии 1-7 из 7) SesDizi [PR] торрент скачать бесплатно

Именно так / Точь-в-точь / Aynen Aynen (2020) HDTVRip [H.264 / 720p-LQ] (сезон 4, серии 1-7 из 7) SesDizi [PR]Производство: Турция/Games Medya
Жанр: короткометражный, комедия
Режиссер: Осман Кая

Актеры
Нилпери Шахинкая, Керем Бюрсин, Серкан Сенгул, Лале Башар, Вурал Джейлан и др.

Описание

Сезон покажет веселые приключения Дениза и Ниль, рассказывая о взаимоотношениях между мужчиной и женщиной юмористическим и реалистичным языком. Дениз и Ниль увидят в некоторых ситуациях и поймут, что хотят показать себя с другой стороны в отношениях, но на самом деле они увидят свои настоящие мысли и перед лицом этого контраста они дадут зрителям сериала много моментов для смеха.


Продолжительность: ~00: 08: 00 серия
Качество видео: HDTVRip
Перевод: Двуголосый любительский (SesDizi)
Видео: AVC/H.264, 1280x720 (16: 9), ~1800 kbps
Аудио: AAC, 2 ch, 192 kbps
General
Unique ID : 85213563120674533561166038910093712740 (0x401B8908A5D1A6323CFC8028064B5D64)
Complete name : G: Aynen Aynen.s04.HDTV.SesDiziAynen Aynen.s04.e05.HDTV720p.mkv
Format : Matroska
Format version : Version 4
File size : 95.0 MiB
Duration : 6 min 45 s
Overall bit rate mode : Variable
Overall bit rate : 1 967 kb/s
Encoded date : UTC 2020-08-29 21: 08: 03
Writing application : mkvmerge v47.0.0 (\'Black Flag\') 64-bit
Writing library : libebml v1.3.10 + libmatroska v1.5.2
Video
ID : 1
Format : AVC
Format/Info : Advanced Video Codec
Format profile : [email protected]
Format settings : CABAC/4 Ref Frames
Format settings, CABAC : Yes
Format settings, Reference fra : 4 frames
Codec ID : V_MPEG4/ISO/AVC
Duration : 6 min 45 s
Bit rate mode : Variable
Bit rate : 1 773 kb/s
Maximum bit rate : 1 800 kb/s
Width : 1 280 pixels
Height : 720 pixels
Display aspect ratio : 16: 9
Frame rate mode : Constant
Frame rate : 25.000 FPS
Color space : YUV
Chroma subsampling : 4: 2: 0
Bit depth : 8 bits
Scan type : Progressive
Bits/(Pixel*Frame) : 0.077
Stream size : 85.6 MiB (90%)
Default : Yes
Forced : No
Audio
ID : 2
Format : AAC LC
Format/Info : Advanced Audio Codec Low Complexity
Codec ID : A_AAC-2
Duration : 6 min 45 s
Bit rate : 192 kb/s
Channel(s) : 2 channels
Channel layout : L R
Sampling rate : 44.1 kHz
Frame rate : 43.066 FPS (1024 SPF)
Compression mode : Lossy
Delay relative to video : -46 ms
Stream size : 9.27 MiB (10%)
Default : Yes
Forced : No

Скриншоты для ознакомления



Все одноименные релизы в Клубе
Время раздачи: с 11: 00 до 3: 00 (до появления первых 3-5 скачавших)

Другие торренты по теме:

  • Именно так / Точь-в-точь / Aynen Aynen (2019) WEBRip [H.264 / 1080p-LQ] (сезон 1-3, серии 1-22 из 22) SesDizi [PR]

  • Посетители, находящиеся в группе Гости, не могут оставлять комментарии в данной новости.