Подписывайся на наш канал в Telegram https://t.me/torrentok и получи доступ к торрентам без ограничений!

История Затоичи / Zatoichi monogatari / Zatoichi: The Blind Swordsman (1979) DVDRip (сезон 4, серии 1-3 из 26) Виктор Береговых (обновляемая) торрент скачать бесплатно

История Затоичи / Zatoichi monogatari / Zatoichi: The Blind Swordsman (1979) DVDRip (сезон 4, серии 1-3 из 26) Виктор Береговых (обновляемая)Производство: Япония/Katsu Production
Жанр: боевик, драма
Режиссер: Синтаро Кацу, Акикадзу Ота, Кадзуо Мори

Актеры
Синтаро Кацу, Синтаро Акацуки, Рэндзи Исибаси, Кэйдзо Каниэ, Сюнъя Вадзаки, Дайго Кусано, Асао Койкэ, Сюнъити Окита, Хидэки Ханаока, Син Кисида

Описание

Многосерийный телефильм, во многом повторяющий сюжет популярной серии полнометражных фильмов о слепом фехтовальщике Затоичи. Идея создания телеверсии принадлежит исполнителю главной роли, Синтаро Кацуо. Съемки телевизионной версии происходили при прямом участии его частной кино-теле-компании. Фильм предназначался для трансляции по телевидению, но снимался без участия каких-либо телевизионных каналов. Сериал состоит из ста серий, которые были поделены на 4 сезон любимого сериалаа. Несмотря на формат, каждая серия снималась как отдельное художественное произведение, со своим режиссером и сценаристами.


Релиз от: vitolinform
Продолжительность: ~00: 46: 00 серия
Качество видео: DVDRip
Перевод: Одноголосый любительский (Виктор Береговых)
Субтитры: Русские (отдельными файлами)
Видео: Xvid, 640x432, ~1700 kbps
Аудио 1: AC3, 2 ch, 192 kbps | Русский (VO, В.Береговых)
Аудио 2: AC3, 2 ch, 192 kbps | Японский
Общее
Полное имя : C: Istoriya.Zatoichi.s.4.1979.DVDRipIstoriya.Zatoichi.s.4ep.01.1979.DVDRip.avi
Формат : AVI
Формат/Информация : Audio Video Interleave
Размер файла : 690 Мбайт
Продолжительность : 45 м. 59 с.
Общий поток : 2 097 Кбит/сек
Программа кодирования : VirtualDubMod 1.5.10.2 (build 2542/release)
Библиотека кодирования : VirtualDubMod build 2542/release
Видео
Идентификатор : 0
Формат : MPEG-4 Visual
Профиль формата : Advanced [email protected]
Настройки формата : BVOP1
Параметр BVOP формата : 1
Параметр QPel формата : Нет
Параметр GMC формата : Без точки перехода
Параметр матрицы формата : Default (MPEG)
Идентификатор кодека : XVID
Идентификатор кодека/Подсказка : XviD
Продолжительность : 45 м. 59 с.
Битрейт : 1 699 Кбит/сек
Ширина : 640 пикселей
Высота : 432 пикселя
Соотношение сторон : 3: 2
Частота кадров : 23, 976 (24000/1001) кадра/сек
Цветовое пространство : YUV
Субдискретизация насыщенности : 4: 2: 0
Битовая глубина : 8 бит
Тип развёртки : Прогрессивная
Метод сжатия : С потерями
Бит/(Пиксели*Кадры) : 0.256
Размер потока : 559 Мбайт (81%)
Библиотека кодирования : XviD 69
Аудио #1
Идентификатор : 1
Формат : AC-3
Формат/Информация : Audio Coding 3
Коммерческое название : Dolby Digital
Идентификатор кодека : 2000
Продолжительность : 45 м. 59 с.
Вид битрейта : Постоянный
Битрейт : 192 Кбит/сек
Каналы : 2 канала
Channel layout : L R
Частота : 48, 0 КГц
Частота кадров : 31, 250 кадров/сек (1536 SPF)
Метод сжатия : С потерями
Размер потока : 63, 2 Мбайт (9%)
Выравнивание : Разделение по промежуткам
Продолжительность промежутка : 42 мс. (1, 00 видеокадр)
Время предзагрузки промежутка : 500 мс.
Service kind : Complete Main
Аудио #2
Идентификатор : 2
Формат : AC-3
Формат/Информация : Audio Coding 3
Коммерческое название : Dolby Digital
Идентификатор кодека : 2000
Продолжительность : 45 м. 59 с.
Вид битрейта : Постоянный
Битрейт : 192 Кбит/сек
Каналы : 2 канала
Channel layout : L R
Частота : 48, 0 КГц
Частота кадров : 31, 250 кадров/сек (1536 SPF)
Метод сжатия : С потерями
Размер потока : 63, 2 Мбайт (9%)
Выравнивание : Разделение по промежуткам
Продолжительность промежутка : 42 мс. (1, 00 видеокадр)
Время предзагрузки промежутка : 500 мс.
Заголовок : Japanese
Service kind : Complete Main
=====================================================================================================
Общее
Полное имя : C: Istoriya.Zatoichi.s.4.1979.DVDRipIstoriya.Zatoichi.s.4ep.02.1979.DVDRip.avi
Формат : AVI
Формат/Информация : Audio Video Interleave
Размер файла : 690 Мбайт
Продолжительность : 46 м. 0 с.
Общий поток : 2 097 Кбит/сек
Программа кодирования : VirtualDubMod 1.5.10.2 (build 2542/release)
Библиотека кодирования : VirtualDubMod build 2542/release
Видео
Идентификатор : 0
Формат : MPEG-4 Visual
Профиль формата : Advanced [email protected]
Настройки формата : BVOP1
Параметр BVOP формата : 1
Параметр QPel формата : Нет
Параметр GMC формата : Без точки перехода
Параметр матрицы формата : Default (MPEG)
Идентификатор кодека : XVID
Идентификатор кодека/Подсказка : XviD
Продолжительность : 46 м. 0 с.
Битрейт : 1 699 Кбит/сек
Ширина : 640 пикселей
Высота : 432 пикселя
Соотношение сторон : 3: 2
Частота кадров : 23, 976 (24000/1001) кадра/сек
Частота кадров в оригинале : 23, 976 (23976/1000) кадра/сек
Цветовое пространство : YUV
Субдискретизация насыщенности : 4: 2: 0
Битовая глубина : 8 бит
Тип развёртки : Прогрессивная
Метод сжатия : С потерями
Бит/(Пиксели*Кадры) : 0.256
Размер потока : 559 Мбайт (81%)
Библиотека кодирования : XviD 69
Аудио #1
Идентификатор : 1
Формат : AC-3
Формат/Информация : Audio Coding 3
Коммерческое название : Dolby Digital
Идентификатор кодека : 2000
Продолжительность : 46 м. 0 с.
Вид битрейта : Постоянный
Битрейт : 192 Кбит/сек
Каналы : 2 канала
Channel layout : L R
Частота : 48, 0 КГц
Частота кадров : 31, 250 кадров/сек (1536 SPF)
Метод сжатия : С потерями
Размер потока : 63, 2 Мбайт (9%)
Выравнивание : Разделение по промежуткам
Продолжительность промежутка : 42 мс. (1, 00 видеокадр)
Время предзагрузки промежутка : 500 мс.
Заголовок : Russian (VO, Виктор Береговых)
Service kind : Complete Main
Аудио #2
Идентификатор : 2
Формат : AC-3
Формат/Информация : Audio Coding 3
Коммерческое название : Dolby Digital
Идентификатор кодека : 2000
Продолжительность : 46 м. 0 с.
Вид битрейта : Постоянный
Битрейт : 192 Кбит/сек
Каналы : 2 канала
Channel layout : L R
Частота : 48, 0 КГц
Частота кадров : 31, 250 кадров/сек (1536 SPF)
Метод сжатия : С потерями
Размер потока : 63, 2 Мбайт (9%)
Выравнивание : Разделение по промежуткам
Продолжительность промежутка : 42 мс. (1, 00 видеокадр)
Время предзагрузки промежутка : 500 мс.
Заголовок : Japanese
Service kind : Complete Main
===============================================================================================
Общее
Полное имя : C: Istoriya.Zatoichi.s.4.1979.DVDRipIstoriya.Zatoichi.s.4ep.03.1979.DVDRip.avi
Формат : AVI
Формат/Информация : Audio Video Interleave
Размер файла : 690 Мбайт
Продолжительность : 46 м. 10 с.
Общий поток : 2 090 Кбит/сек
Программа кодирования : VirtualDubMod 1.5.10.2 (build 2542/release)
Библиотека кодирования : VirtualDubMod build 2542/release
Видео
Идентификатор : 0
Формат : MPEG-4 Visual
Профиль формата : Advanced [email protected]
Настройки формата : BVOP1
Параметр BVOP формата : 1
Параметр QPel формата : Нет
Параметр GMC формата : Без точки перехода
Параметр матрицы формата : Default (MPEG)
Идентификатор кодека : XVID
Идентификатор кодека/Подсказка : XviD
Продолжительность : 46 м. 10 с.
Битрейт : 1 692 Кбит/сек
Ширина : 640 пикселей
Высота : 432 пикселя
Соотношение сторон : 3: 2
Частота кадров : 23, 976 (24000/1001) кадра/сек
Частота кадров в оригинале : 23, 976 (23976/1000) кадра/сек
Цветовое пространство : YUV
Субдискретизация насыщенности : 4: 2: 0
Битовая глубина : 8 бит
Тип развёртки : Прогрессивная
Метод сжатия : С потерями
Бит/(Пиксели*Кадры) : 0.255
Размер потока : 559 Мбайт (81%)
Библиотека кодирования : XviD 69
Аудио #1
Идентификатор : 1
Формат : AC-3
Формат/Информация : Audio Coding 3
Коммерческое название : Dolby Digital
Идентификатор кодека : 2000
Продолжительность : 46 м. 10 с.
Вид битрейта : Постоянный
Битрейт : 192 Кбит/сек
Каналы : 2 канала
Channel layout : L R
Частота : 48, 0 КГц
Частота кадров : 31, 250 кадров/сек (1536 SPF)
Метод сжатия : С потерями
Размер потока : 63, 4 Мбайт (9%)
Выравнивание : Разделение по промежуткам
Продолжительность промежутка : 42 мс. (1, 00 видеокадр)
Время предзагрузки промежутка : 500 мс.
Заголовок : Russian (VO, Виктор Береговых)
Service kind : Complete Main
Аудио #2
Идентификатор : 2
Формат : AC-3
Формат/Информация : Audio Coding 3
Коммерческое название : Dolby Digital
Идентификатор кодека : 2000
Продолжительность : 46 м. 10 с.
Вид битрейта : Постоянный
Битрейт : 192 Кбит/сек
Каналы : 2 канала
Channel layout : L R
Частота : 48, 0 КГц
Частота кадров : 31, 250 кадров/сек (1536 SPF)
Метод сжатия : С потерями
Размер потока : 63, 4 Мбайт (9%)
Выравнивание : Разделение по промежуткам
Продолжительность промежутка : 42 мс. (1, 00 видеокадр)
Время предзагрузки промежутка : 500 мс.
Заголовок : Japanese
Service kind : Complete Main

Другие торренты по теме:

  • История Затоичи / Zatoichi monogatari / Zatoichi: The Blind Swordsman (1974) DVDRip (сезон 1, серии 1-26 из 26) Виктор Береговых
  • История Затоичи / Zatoichi monogatari / Zatoichi: The Blind Swordsman (1976) DVDRip (сезон 2, серии 1-21 из 29) Виктор Береговых (обновляемая)
  • История Затоичи / Zatoichi monogatari / Zatoichi: The Blind Swordsman (1978) DVDRip (сезон 3, серии 1-8 из 19) Виктор Береговых (обновляемая)

  • Посетители, находящиеся в группе Гости, не могут оставлять комментарии в данной новости.